<?xml version="1.0" standalone="no"?>
<!DOCTYPE svg PUBLIC "-//W3C//DTD SVG 1.1//EN" "http://www.w3.org/Graphics/SVG/1.1/DTD/svg11.dtd" >
<svg xmlns="http://www.w3.org/2000/svg">
<metadata>
Created by FontPrep 20130207 at Tue Oct 27 11:53:09 2015
 By Lowery, Justin
Copyright (c) 2014 by PYRS Fontlab Ltd. / Made with FontLab. All rights reserved.
</metadata>
<defs>
<font id="69ac2c9fc1e0803e59e06e93859bed03" horiz-adv-x='1024' >
  <font-face 
    font-family="PayPalIcons-Regular"
    font-weight="400"
    font-stretch="normal"
    units-per-em="2048"
    panose-1="0 0 5 0 0 0 0 0 0 0"
    ascent="1638"
    descent="-410"
    x-height="1079"
    cap-height="1511"
    bbox="-74 -494.257 4418.11 1721"
    underline-thickness="102"
    underline-position="-51"
    unicode-range="U+004F-E539"
  />
<missing-glyph horiz-adv-x="1024" 
d="M512 625l-348 -523h696zM922 1239l-349 -522l349 -522v1044zM451 717l-349 522v-1044zM164 1331l348 -522l348 522h-696zM1024 1434v-1434h-1024v1434h1024z" />
    <glyph glyph-name=".notdef" horiz-adv-x="1024" 
d="M512 625l-348 -523h696zM922 1239l-349 -522l349 -522v1044zM451 717l-349 522v-1044zM164 1331l348 -522l348 522h-696zM1024 1434v-1434h-1024v1434h1024z" />
    <glyph glyph-name=".null" horiz-adv-x="0" 
 />
    <glyph glyph-name="nonmarkingreturn" horiz-adv-x="681" 
 />
    <glyph glyph-name="O" unicode="O" horiz-adv-x="1228" 
d="M1094 732q0 304 -129 450q-115 156 -343 156t-366 -156q-125 -174 -125 -457t141 -426q115 -158 346 -158t347 158q129 129 129 433zM1296 726q0 -184 -49 -314q-47 -145 -139 -238q-155 -205 -491 -205q-161 0 -279 47q-129 62 -222 156t-143 240q-47 152 -47 318
t47 323q104 311 365 395q104 63 279 63t284 -63q141 -53 207 -141q92 -92 139 -234q49 -163 49 -347z" />
    <glyph glyph-name="X" unicode="X" horiz-adv-x="1228" 
d="M217 1481l397 -604l408 604h215l-510 -731l510 -750h-227l-404 610l-416 -610h-210l514 737l-504 744h227z" />
    <glyph glyph-name="j" unicode="j" horiz-adv-x="1228" 
d="M301 950v156h414v-1122q0 -186 -99 -295q-96 -96 -264 -97q-59 0 -102 11q-88 12 -109 18v174h13q10 -2 59 -19t112 -17q118 -1 173 77q20 41 25 87t5 143v884h-227zM516 1288v193h211v-193h-211z" />
    <glyph glyph-name="l" unicode="l" horiz-adv-x="1226" 
d="M512 4v1571h182v-1571h-182z" />
    <glyph glyph-name="o" unicode="o" horiz-adv-x="1228" 
d="M915 562q0 200 -86 306q-33 47 -93 76t-124 29q-133 0 -231 -105q-88 -111 -88 -308t88 -314q81 -100 235 -100t213 100q86 116 86 316zM1104 551q0 -264 -127 -420q-145 -145 -374 -145t-353 145q-144 143 -144 419t144 423q125 141 354 141t373 -141q127 -158 127 -422
z" />
    <glyph glyph-name="x" unicode="x" horiz-adv-x="1228" 
d="M938 1079h205l-430 -530l430 -547h-223l-308 428l-309 -428h-221l428 547l-412 530h221l310 -393z" />
    <glyph glyph-name="bar" unicode="|" horiz-adv-x="1228" 
d="M528 -289v1876h170v-1876h-170z" />
    <glyph glyph-name="uniE000" unicode="&#xe000;" horiz-adv-x="2621" 
d="M532 246h1557q51 0 87 -36t36 -87t-36 -87t-87 -36h-1557q-51 0 -87 36t-35 87q0 51 35 87q36 36 87 36zM532 819h1557q51 0 87 -36t36 -87t-36 -87t-87 -36h-1557q-51 0 -87 36t-35 87q0 51 35 87q36 36 87 36zM532 1393h1557q51 0 87 -36t36 -87t-36 -87t-87 -36h-1557
q-51 0 -87 36t-35 87q0 51 35 87q36 36 87 36z" />
    <glyph glyph-name="uniE001" unicode="&#xe001;" horiz-adv-x="1064" 
d="M532 217q52 0 88 -36t36 -87t-36 -87t-88 -36t-87 36q-36 36 -35 87q0 51 35 87q36 36 87 36zM532 791q52 0 88 -36t36 -87t-36 -87t-88 -36t-87 36q-36 36 -35 87q0 51 35 87q36 36 87 36zM532 1364q52 0 88 -36t36 -87t-36 -87t-88 -36t-87 36q-36 36 -35 87
q0 51 35 87q36 36 87 36z" />
    <glyph glyph-name="uniE002" unicode="&#xe002;" horiz-adv-x="983" 
d="M410 0v164h163v-164h-163zM410 410v163h163v-163h-163zM410 819v164h163v-164h-163z" />
    <glyph glyph-name="uniE003" unicode="&#xe003;" horiz-adv-x="2007" 
d="M1698 18q0 -18 -11 -29t-29 -11t-30 12l-624 624l-627 -626q-11 -12 -29 -12t-29 12q-29 29 0 57l625 627l-625 624q-29 31 0 59t60 1l625 -627l626 627q10 12 28 12t30 -12q29 -29 0 -58l-627 -626l625 -625q12 -11 12 -29z" />
    <glyph glyph-name="uniE004" unicode="&#xe004;" horiz-adv-x="1925" 
d="M1004 -29h-82v615h-615v82h615v614h82v-614h614v-82h-614v-615z" />
    <glyph glyph-name="uniE005" unicode="&#xe005;" horiz-adv-x="2011" 
d="M1007 164q-15 0 -32 12l-656 655q-29 29 0 58q9 12 27 12t31 -12l629 -627l628 627q10 12 28 12t30 -12q29 -29 0 -58l-658 -655q-12 -12 -27 -12z" />
    <glyph glyph-name="uniE006" unicode="&#xe006;" horiz-adv-x="2011" 
d="M1004 946q18 0 30 -12l658 -655q29 -29 0 -58q-12 -12 -30 -12t-28 12l-628 627l-629 -627q-12 -12 -30 -12t-28 12q-29 29 0 58l656 655h2q9 12 27 12z" />
    <glyph glyph-name="uniE007" unicode="&#xe007;" horiz-adv-x="1398" 
d="M1050 -6q-17 0 -28 12l-703 707q-12 12 -12 28t12 29l703 707q10 12 28 12t29 -12q29 -29 0 -58l-673 -678l673 -678q29 -28 0 -57q-12 -12 -29 -12z" />
    <glyph glyph-name="uniE008" unicode="&#xe008;" horiz-adv-x="1431" 
d="M414 1489q18 0 28 -12l703 -707q12 -12 12 -28t-12 -29l-703 -707q-10 -12 -28 -12t-29 12q-29 29 0 57l674 678l-674 678q-29 29 0 58q11 12 29 12z" />
    <glyph glyph-name="uniE009" unicode="&#xe009;" horiz-adv-x="1515" 
d="M756 408q-16 0 -29 12l-408 405q-29 31 0 60t58 0l379 -379l383 381q28 29 57 0t0 -58l-412 -409q-12 -12 -28 -12z" />
    <glyph glyph-name="uniE010" unicode="&#xe010;" horiz-adv-x="1515" 
d="M758 944q18 0 30 -12l408 -408q12 -10 12 -27t-12 -30q-29 -29 -59 0l-379 379l-381 -381q-12 -12 -30 -12t-28 12q-29 29 0 57l410 410q11 12 29 12z" />
    <glyph glyph-name="uniE011" unicode="&#xe011;" horiz-adv-x="1220" 
d="M307 554q0 16 12 30l523 516q12 12 29 12t30 -12q29 -29 0 -58l-495 -489l495 -496q29 -28 0 -57t-57 0l-525 526q-12 12 -12 28z" />
    <glyph glyph-name="uniE012" unicode="&#xe012;" horiz-adv-x="1220" 
d="M913 554q0 -16 -12 -30l-524 -524q-29 -29 -58 0t0 57l496 494l-496 489q-29 29 0 58t60 0l522 -516q12 -12 12 -28z" />
    <glyph glyph-name="uniE013" unicode="&#xe013;" horiz-adv-x="1269" 
d="M307 588q0 18 12 29q11 11 29 11t31 -12l256 -256l258 258q9 12 27 12t30 -12q29 -29 0 -57l-258 -258l256 -256q12 -11 12 -29t-12 -28q-29 -29 -57 0l-256 256l-258 -258q-11 -12 -29 -12t-29 12q-29 29 0 57l256 258l-256 256q-12 11 -12 29z" />
    <glyph glyph-name="uniE014" unicode="&#xe014;" horiz-adv-x="1802" 
d="M1495 796q0 -17 -12 -28l-781 -780q-29 -29 -57 0l-326 327q-29 29 0 60q29 25 58 0l299 -299l749 749q10 12 28 12t30 -12t12 -29z" />
    <glyph glyph-name="uniE015" unicode="&#xe015;" horiz-adv-x="2035" 
d="M1729 994q0 -34 -25 -58l-938 -938q0 -2 -2 -2q-24 -25 -58 -25t-59 25l-315 315q-25 25 -25 59t25 58q24 24 58 25q34 0 59 -25l258 -258l880 883q25 25 59 25t59 -25q24 -25 24 -59z" />
    <glyph glyph-name="uniE016" unicode="&#xe016;" horiz-adv-x="1966" 
d="M860 21q17 0 29 12l328 327q29 29 0 58l-328 327q-29 29 -58 0t0 -57l299 -299l-299 -299q-29 -29 0 -57q12 -12 29 -12zM983 1004q254 0 434 -180t180 -435q0 -254 -180 -434t-434 -180t-434 180t-180 434q0 255 180 435t434 180z" />
    <glyph glyph-name="uniE017" unicode="&#xe017;" 
d="M1118 33q0 33 23 55t53 21q30 0 54 -23q22 -24 22 -54t-23 -52t-53 -23t-53 21t-23 55zM1249 207h-119v53q0 46 23 94l23 23q47 51 77 82q57 49 57 120t-59 95q-25 10 -47 10q-94 0 -123 -88q-12 -18 -37 -26t-40 1q-43 23 -21 88q9 29 29 57t72 54t122 27
q180 0 221 -152q28 -118 -41 -199l-108 -110q-16 -16 -27 -55l-2 -39v-35zM1925 410q0 303 -215 522q-219 215 -523 215t-521 -215q-215 -219 -215 -523q0 -303 215 -522q217 -213 521 -214t523 214q215 220 215 523zM1188 1229q340 0 580 -240q240 -239 239 -579
q0 -340 -240 -580q-239 -240 -579 -240t-580 240t-239 580q-1 340 239 580t580 239z" />
    <glyph glyph-name="uniE018" unicode="&#xe018;" 
d="M1194 -43q32 0 54 23q22 24 22 54t-23 52t-53 23t-54 -21q-22 -22 -22 -55t23 -53q20 -23 53 -23zM1434 584q0 143 -119 192q-47 20 -113 20t-118 -26t-71 -54t-30 -57q-23 -66 21 -88q16 -10 40 -2t37 27q29 88 123 88q23 0 47 -10q59 -26 59 -96t-57 -119
q-31 -31 -77 -82l-23 -23q-21 -44 -23 -94v-53h119v35q-1 47 7 60t20 32l110 112q48 56 48 138zM1188 1229q340 0 580 -240q240 -239 239 -579q0 -340 -240 -580q-239 -240 -579 -240t-580 240t-239 580q-1 340 239 580t580 239z" />
    <glyph glyph-name="uniE019" unicode="&#xe019;" 
d="M1270 41v336q0 33 -25 57t-57 25q-32 0 -58 -25q-25 -25 -24 -57v-336q0 -33 24 -57t58 -25q34 1 58 25t24 57zM1188 604q42 0 70 29t28 69t-29 69q-29 28 -69 28t-70 -28q-28 -28 -28 -69q0 -42 28 -70t70 -28zM1188 1229q340 0 580 -240q240 -239 239 -579
q0 -340 -240 -580q-239 -240 -579 -240t-580 240t-239 580q-1 340 239 580t580 239z" />
    <glyph glyph-name="uniE020" unicode="&#xe020;" 
d="M859 330q-33 0 -57 -24t-24 -58t23 -58l166 -165q25 -25 58 -25t58 25l490 491q25 24 25 58t-25 59q-25 23 -59 23t-58 -23l-432 -434l-106 106q-25 25 -59 25zM1188 1229q340 0 580 -240q240 -241 239 -579q0 -338 -240 -579q-239 -241 -579 -241t-580 241t-240 580
t240 579t580 239z" />
    <glyph glyph-name="uniE021" unicode="&#xe021;" 
d="M1188 -98q42 0 70 28t28 70q0 41 -29 70q-29 28 -69 28t-70 -28q-28 -28 -28 -70q0 -41 28 -70q29 -28 70 -28zM1106 823v-499q0 -33 24 -58q24 -24 58 -24t58 24t24 58v499q0 33 -25 58t-57 25t-58 -25q-24 -25 -24 -58zM1188 1229q340 0 580 -240q240 -239 239 -579
q0 -340 -240 -580q-239 -240 -579 -240t-580 240t-239 580q-1 340 239 580t580 239z" />
    <glyph glyph-name="uniE022" unicode="&#xe022;" 
d="M1188 -262q42 0 70 29t28 69t-29 70q-29 28 -69 28t-70 -28q-28 -28 -28 -70t28 -70t70 -28zM1106 659v-499q0 -33 24 -58q24 -24 58 -24t58 24t24 58v499q0 33 -25 58t-57 25t-58 -25q-24 -25 -24 -58zM1968 -410h-1558q-68 0 -93 43t11 103l778 1351q33 59 82 59
t82 -59l780 -1351q35 -58 10 -102t-92 -44z" />
    <glyph glyph-name="uniE023" unicode="&#xe023;" 
d="M1188 -33q-33 0 -33 33v557q0 33 33 33t33 -33v-557q0 -33 -33 -33zM1188 819q16 0 28 -12q12 -13 13 -29q0 -16 -12 -28q-29 -29 -58 0q-12 12 -12 28t12 29q13 12 29 12zM1188 1196q-326 0 -556 -230t-230 -556t230 -556t556 -230t556 230t230 556t-230 556t-556 230z
M1188 1229q340 0 580 -240q240 -239 239 -579q0 -340 -240 -580q-239 -240 -579 -240t-580 240t-239 580q-1 340 239 580t580 239z" />
    <glyph glyph-name="uniE024" unicode="&#xe024;" 
d="M975 0q-12 0 -23 10l-209 207q-23 25 0 47t48 0l184 -184l600 598q22 27 45 0q27 -23 0 -45l-623 -623q-10 -10 -22 -10zM1188 1196q-326 0 -556 -230t-230 -556t230 -556t556 -230t556 230t230 556t-230 556t-556 230zM1188 1229q340 0 580 -240q240 -239 239 -579
q0 -340 -240 -580q-239 -240 -579 -240t-580 240t-239 580q-1 340 239 580t580 239z" />
    <glyph glyph-name="uniE025" unicode="&#xe025;" 
d="M1188 0q16 0 28 -12t13 -28q0 -16 -12 -30q-13 -12 -29 -12t-29 12q-12 12 -12 28t12 30q13 12 29 12zM1188 147q-33 0 -33 33v688q0 33 33 33t33 -33v-688q0 -33 -33 -33zM1188 1196q-326 0 -556 -230t-230 -556t230 -556t556 -230t556 230t230 556t-230 556t-556 230z
M1188 1229q340 0 580 -240q240 -239 239 -579q0 -340 -240 -580q-239 -240 -579 -240t-580 240t-239 580q-1 340 239 580t580 239z" />
    <glyph glyph-name="uniE026" unicode="&#xe026;" horiz-adv-x="2453" 
d="M1227 -82q16 0 28 -12q29 -29 0 -58q-12 -12 -28 -12t-29 12q-12 12 -12 28t12 30q13 12 29 12zM1227 66q-33 0 -33 32v688q0 33 33 33t33 -33v-688q0 -32 -33 -32zM1227 1196q-31 0 -58 -45l-813 -1423q-27 -45 -10 -78q16 -27 68 -27h1626q47 0 67 27q14 31 -10 78
l-813 1423q-26 45 -57 45zM1228 1229q50 0 83 -62l815 -1423q35 -62 9 -108t-95 -46h-1626q-70 0 -96 45t10 109l813 1423q37 62 87 62z" />
    <glyph glyph-name="uniE027" unicode="&#xe027;" horiz-adv-x="4827" 
d="M2273 88q-18 24 -13 54t29 49q25 19 57 19t46 -20q18 -18 12 -51q-10 -68 -82 -67q-33 0 -49 16zM1241 72q-33 0 -49 16q-18 24 -13 54t28 49q24 19 56 19t46 -20q18 -18 12 -51q-10 -67 -80 -67zM3877 219h53l-35 -211q0 -8 6 -8h58q10 0 10 8l33 211h51q10 0 10 8l8 47
q0 6 -6 7h-178q-8 0 -10 -9l-6 -47q-2 -2 1 -4t5 -2zM3414 0h143q6 0 11 8l6 47q4 8 -4 8h-82l6 37q2 8 10 9h66q10 0 10 10l8 47q0 6 -6 6h-76l6 39q0 8 11 8h69q10 0 10 8l9 47q0 6 -7 7h-143q-10 0 -10 -9l-43 -264q0 -8 6 -8zM3037 0h146q6 0 10 8l6 47q0 8 -6 8h-80
l6 37q0 8 10 9h66q10 0 10 10l8 47q0 6 -6 6h-76l7 39q0 8 8 8h71q6 0 11 8l6 47q0 6 -6 7h-146q-8 0 -10 -9l-41 -264q-4 -8 6 -8zM3226 0h145q6 0 10 8l6 47q0 8 -6 8h-80l33 211q0 8 -6 9h-57q-10 0 -11 -11l-41 -264q0 -8 7 -8zM1489 -98h72q10 0 16 8l244 352q4 6 1 13
t-12 8h-71q-12 0 -19 -11l-102 -149l-43 143q-4 16 -21 17h-69q-16 0 -12 -19l79 -235l-73 -107q-4 -8 -1 -14t11 -6zM2900 -6q107 0 123 100q10 55 -55 78q-51 11 -46 33q4 23 30 23t36 -10q12 -9 16 -3l31 45q4 8 -2 8q-88 47 -150 -5q-32 -27 -38 -67t9 -56
q16 -16 44 -22t40 -14t9 -20q-6 -29 -39 -29t-57 25q-4 4 -8 -2l-35 -47q-2 -4 2 -8q39 -29 90 -29zM2333 289q-65 0 -113 -42q-47 -43 -57 -107q-9 -64 25 -106q34 -40 96 -40t100 41l-4 -21q0 -14 12 -14h68q16 0 20 18l37 248q4 16 -12 17h-72q-12 0 -12 -13l-4 -20
q-19 39 -84 39zM1249 289q-65 -1 -113 -43t-57 -106q-10 -64 25 -106q34 -40 98 -40t98 41l-4 -21q0 -14 13 -14h67q16 0 21 18l39 248q4 16 -13 17h-73q-10 0 -17 -33q-19 39 -84 39zM3744 -6q25 0 46 7t21 11l11 66q2 2 -2 5t-9 1q-27 -20 -57 -20t-48 21q-17 23 -12 55
t28 55q24 23 57 23t46 -14q13 -13 17 -3l10 63q0 25 -63 25q-59 4 -113 -31t-65 -119q-7 -49 23 -97t110 -48zM1980 225h-22l14 103q2 8 15 8h10q51 0 65 -12q12 -16 7 -43q-8 -45 -49 -54q-13 -2 -40 -2zM897 225h-23l15 103q2 8 14 8h10q53 0 68 -12q12 -16 7 -43
q-8 -46 -50 -54q-14 -2 -41 -2zM2542 0h61q18 0 23 18l61 390q4 14 -12 14h-72q-8 0 -12 -12l-64 -396q0 -14 15 -14zM1831 0h78q14 0 14 12l19 111q0 16 20 16h47q150 0 174 146q17 137 -131 137h-151q-20 0 -21 -19l-63 -389q0 -14 14 -14zM750 0h69q20 0 21 18l18 105
q0 16 21 16h49q147 0 172 146q8 63 -24 100t-105 37h-154q-20 0 -20 -19l-62 -389q0 -14 15 -14zM4389 702q14 0 22 -10t7 -24l-144 -908q-6 -41 -49 -41h-3785q-14 1 -23 11t-7 24l145 924q4 25 29 24h3805z" />
    <glyph glyph-name="uniE028" unicode="&#xe028;" horiz-adv-x="3354" 
d="M1585 90h-121l49 320q6 10 -6 10h-86q-12 0 -16 -14l-64 -396q0 -10 11 -10h215q14 0 16 12l10 70q4 8 -8 8zM2609 422h-266q-10 0 -14 -14l-11 -70q0 -8 9 -8h79l-51 -318q0 -12 8 -12h88q14 0 15 14l51 316h76q14 0 14 10l12 72q0 10 -10 10zM1798 330h103q12 0 16 10
l10 72q0 10 -8 10h-217q-10 0 -14 -14l-64 -396q0 -12 8 -12h217q14 0 15 14l12 70q0 8 -10 8h-119l10 60q4 14 15 14h96q12 0 16 12l10 70q4 10 -8 10h-112l10 59q0 13 14 13zM1339 330q10 0 15 10l8 72q6 10 -8 10h-215q-12 0 -17 -14l-61 -396q0 -12 10 -12h215
q14 0 14 14l13 70q0 8 -10 8h-119l8 60q4 14 16 14h99q10 0 14 12l10 70q4 10 -8 10h-115l11 59q0 12 14 13h106zM943 340q43 0 59 -13t20 -3l47 65q6 6 -2 14q-53 29 -119 29t-112 -38t-54 -97q-10 -59 13 -83t67 -37t59 -25t13 -27q-6 -41 -58 -41t-85 35q-8 4 -13 -2
l-51 -72q-4 -8 2 -12q63 -43 135 -43t125 41q52 36 64 115t-88 112l-27 8q-47 16 -42 45t47 29zM2130 -10q20 0 90 16q10 4 10 12l17 97q0 6 -5 9t-12 -1q-39 -29 -86 -29q-46 0 -72 33t-18 83t44 84t85 34t76 -31q16 -10 16 6l17 92q2 14 -13 23q-37 10 -105 15t-148 -46
q-81 -51 -99 -176q-4 -43 7 -89q12 -46 62 -89t134 -43zM588 702h2328q14 0 22 -10t7 -24l-143 -908q-4 -41 -47 -41h-2315q-14 1 -22 11t-6 22l145 926q4 24 31 24z" />
    <glyph glyph-name="uniE029" unicode="&#xe029;" horiz-adv-x="1427" 
d="M604 270h84q319 0 371 295q84 -55 55 -200q-47 -233 -301 -234h-25q-29 0 -36 -33l-33 -202q-8 -33 -35 -33h-137q-23 0 -23 26l58 361q4 20 22 20zM604 309q-55 0 -63 -55l-43 -283h-164q-31 0 -25 29l123 784q8 37 41 37h281q160 0 225 -71q76 -86 25 -242
q-69 -199 -312 -199h-88z" />
    <glyph glyph-name="uniE030" unicode="&#xe030;" horiz-adv-x="2398" 
d="M1731 137h112l-10 228zM1845 45h-159l-33 -72h-144l260 486h175l45 -486h-138zM891 -27l151 486h127l-149 -486h-129zM557 -27l-45 396q-8 41 -26 53t-76 12l4 25h229l12 -316l176 316h142l-281 -486h-135zM1311 -43q-100 0 -201 59l61 99q77 -51 131 -51t74 28
q10 20 -2 34t-53 42l-31 18q-119 80 -71 189q43 94 184 94q96 0 174 -57l-72 -88q-55 47 -103 47t-59 -29q-23 -18 33 -57q6 -7 10 -9l33 -18q133 -84 92 -176q-51 -125 -200 -125z" />
    <glyph glyph-name="uniE031" unicode="&#xe031;" horiz-adv-x="2111" 
d="M1350 154q0 29 36 28h17q-4 -45 -37 -45q-16 1 -16 17zM645 154q0 29 41 28h8q0 -45 -28 -45q-21 1 -21 17zM1616 236q24 0 24 -29t-11 -46t-25 -18q-20 1 -20 47t32 46zM1038 211h-47q3 29 25 29t22 -21v-8zM1532 225h4q2 25 16 54h-4q-18 0 -37 -31l5 26h-48l-24 -168
h51q10 107 25 116q4 3 12 3zM1165 225h4q6 39 17 54h-6q-12 0 -37 -31v26h-35l-27 -168h41q12 80 20 100t23 19zM1446 227q0 53 -57 54q-25 0 -52 -9l-6 -43h4l8 2q8 9 36 9t28 -17v-10l-23 2q-78 0 -77 -68q0 -43 47 -45q23 0 45 23l-2 -19h37v9l2 12v10l8 60q2 18 2 30z
M1018 139q-31 0 -31 29v10h90q4 16 4 37q0 66 -61 66q-36 0 -58 -29t-22 -72q0 -78 78 -78q10 0 43 9l12 39q-24 -11 -55 -11zM809 154q-1 -14 -23 -14t-41 7l-12 -36h6l11 -5h34q68 0 68 52q0 37 -29 49q-25 8 -24 16q0 23 55 13l6 43l-37 2q-68 0 -67 -60q0 -31 35 -45
q18 -16 18 -22zM606 147q0 -45 39 -45q29 0 47 23v-19h35v5l2 4l2 22l10 60q4 18 4 30q0 53 -59 54q-29 0 -53 -9l-8 -43h4l10 2q8 9 36 9t27 -17q0 -4 -2 -10l-18 2q-76 0 -76 -68zM922 141q-14 0 -15 13v10l11 67h22l6 43h-22l6 25h-47l-19 -113l-2 -18l-2 -14v-15
q0 -37 31 -37q12 0 37 9l6 32q-4 -2 -12 -2zM1600 281q-24 0 -46 -34q-23 -34 -22 -73q0 -68 55 -68q27 0 39 19l-2 -19h45l31 209h-39l-8 -57q-29 23 -53 23zM551 315l-43 -129l-2 129h-64l-36 -209h43l22 160l6 -160h33l55 160l-26 -160h49l30 209h-67zM1223 201
q0 29 16 51q30 40 82 10l6 43q-2 4 -8 4l-21 6l-20 2q-47 1 -75 -33t-27 -91q0 -90 81 -91q10 1 35 9l8 43q-28 -12 -40 -12t-24 14q-12 16 -13 45zM1346 623q152 0 274 -120q123 -120 123 -289t-123 -290q-122 -121 -276 -121t-254 76q88 88 118 184h-41q-37 -96 -112 -159
q-78 72 -113 159h-45q37 -102 127 -184q-102 -76 -259 -76t-277 120t-119 290q0 170 119 290q120 120 292 120q137 0 244 -76q-92 -84 -133 -205h45q41 111 119 180q88 -78 119 -180h43q-33 117 -127 205q104 76 256 76z" />
    <glyph glyph-name="uniE032" unicode="&#xe032;" horiz-adv-x="2111" 
d="M799 154q0 29 45 28h10q0 -43 -33 -43q-22 1 -22 15zM1526 238q27 0 26 -35v-19q-4 -18 -16 -30t-23 -13q-29 0 -28 41q0 20 11 38q12 18 30 18zM1007 240q26 0 25 -21v-10h-57q6 31 32 31zM1436 276q0 2 -2 3q-23 0 -48 -31l9 28h-47l-31 -170h49q12 74 22 98t29 23h6
l7 -2l18 49l-6 2h-6zM1507 102q103 0 103 114q0 22 -22 44t-64 21q-42 0 -70 -29q-27 -29 -27 -72q0 -78 80 -78zM1128 104q80 0 80 54q0 37 -30 48t-29 21q0 10 18 10t43 -4l7 43q-25 4 -43 5q-78 0 -78 -60q0 -29 33 -44t32 -23q0 -14 -28 -14t-48 5l-8 -34l10 -5h15
q12 -2 26 -2zM1081 217q0 62 -71 64q-39 0 -64 -29t-24 -72q0 -76 86 -76q29 0 49 7l14 39q-35 -10 -55 -11q-47 0 -47 29v8h106q6 27 6 41zM752 147q0 -43 43 -43q37 0 57 19l-2 -17h41v11l18 80q2 18 2 30q0 53 -65 54q-23 0 -64 -11l-6 -41q15 8 51 8q35 1 35 -14
q0 -4 -2 -10l-18 2q-90 0 -90 -68zM1262 104q23 0 34 5l7 34h-5q-6 -2 -8 -2q-16 0 -16 15v6l14 69h29l6 45h-31l8 37h-47l-22 -127l-6 -18l-4 -14l-2 -15q0 -35 43 -35zM682 313l-57 -127l-4 127h-80l-39 -207h47l33 160l8 -160h43l72 160l-29 -160h49l41 207h-84z
M1329 623q172 0 293 -120t121 -290t-121 -290t-293 -120q-135 0 -242 76q90 86 123 184h-41q-39 -90 -114 -157q-80 74 -113 157h-45q43 -106 127 -184q-106 -76 -242 -76q-172 0 -293 120t-120 290q0 170 120 290q121 120 293 120q135 0 242 -76q-94 -88 -133 -203h47
q29 94 117 178q88 -82 121 -178h41q-33 113 -130 203q107 76 242 76z" />
    <glyph glyph-name="uniE033" unicode="&#xe033;" horiz-adv-x="2580" 
d="M1522 115v65h178v72h-178v63h207l88 -100l-93 -100h-202zM635 188l57 138l56 -138h-113zM1448 387v-348h332l104 115l101 -115h106l-156 176l158 172h-102l-107 -113l-102 113h-334zM905 387v-328l-141 328h-123l-149 -348h90l30 80h176l31 -80h168v272l121 -272h74
l118 272v-272h86v348h-139l-98 -235l-109 235h-135zM2171 -29h-221l-68 78l-74 -78h-567v62l-24 -62h-146l-27 62v-62h-274l-35 78h-69l-33 -78h-223v68l182 416h219l27 -58v58h252l55 -123l53 123h621l67 -70l66 70h219v-88l-139 -152l139 -156v-88z" />
    <glyph glyph-name="uniE034" unicode="&#xe034;" horiz-adv-x="2791" 
d="M606 213q0 45 -35 80q-29 23 -84 22h-16v-206h16q53 -1 84 24q35 35 35 80zM2214 225h18q59 0 60 49q0 45 -60 45h-18v-94zM2214 180v-125h-64v316h95q111 0 110 -95q0 -76 -74 -88l101 -133h-74l-88 125h-6zM2111 315h-112v-67h110v-55h-110v-84h112v-54h-172v316h172
v-56zM1774 49h-33l-135 322h69l84 -211l84 211h66zM758 371v-316h-60v316h60zM410 371h90q74 0 122 -45t48 -116t-54 -113t-116 -42h-90v316zM1453 375q71 0 119 -47t48 -116t-48 -116t-120 -47t-120 47t-48 116t49 116t120 47zM860 289q0 -25 50 -41t70 -38t19 -62t-31 -70
q-30 -29 -88 -29t-98 60l39 38q19 -43 67 -43t48 46q0 18 -14 28t-45 19q-80 31 -80 90q1 37 29 63t75 25q47 0 86 -35l-31 -43q-25 27 -51 27q-45 0 -45 -35zM1020 212q0 69 48 117t118 48q37 0 76 -21v-69q-35 33 -78 33t-73 -32q-30 -30 -30 -76t30 -76t72 -30t79 31v-69
q-40 -18 -94 -18t-101 46q-47 47 -47 116z" />
    <glyph glyph-name="uniE035" unicode="&#xe035;" horiz-adv-x="1966" 
d="M594 49h471q20 1 20 21t-20 20h-471q-20 0 -20 -20t20 -21zM1393 49v41q-1 16 -13 28t-28 13h-82q-16 0 -28 -12t-13 -29v-41q0 -17 12 -29t29 -12h82q16 0 28 12t13 29zM594 213h778q20 0 21 20q0 20 -21 21h-778q-20 0 -20 -20t20 -21zM492 582h983q33 0 57 -25t24 -57
v-574q0 -34 -24 -58t-57 -24h-983q-35 0 -59 24t-23 58v574q0 34 24 58t58 24z" />
    <glyph glyph-name="uniE036" unicode="&#xe036;" horiz-adv-x="1720" 
d="M1126 92v328q-20 0 -20 20v21h-82v-21q0 -20 -20 -20v-328q20 0 20 -20v-21h82v21q0 20 20 20zM819 461v-21q0 -20 -20 -20v-328q20 0 20 -20v-21h82v21q0 20 21 20v328q-20 0 -21 20v21h-82zM594 420v-328q20 0 20 -20v-21h82v21q0 20 21 20v328q-20 0 -21 20v21h-82
v-21q0 -20 -20 -20zM1290 -31h41q20 0 21 -20v-82q0 -20 -21 -21h-942q-20 0 -20 21v82q0 20 20 20h41v62q0 20 21 20h41v21q0 20 20 20v328q-20 0 -20 20v21h-62q-20 0 -20 20v41q0 20 20 21l434 164l426 -164q20 0 21 -21v-41q0 -20 -21 -20h-61v-21q0 -20 -21 -20v-328
q20 0 21 -20v-21h43q18 0 18 -20v-62z" />
    <glyph glyph-name="uniE037" unicode="&#xe037;" horiz-adv-x="2547" 
d="M2241 -190v-76q0 -12 -11 -13h-1913q-10 0 -10 13v76q0 84 72 118l604 308q41 23 47 65l21 131h2q-74 68 -115 176l-51 27q-18 10 -23 31l-30 184v14q0 53 51 64q-25 158 -23 225q8 157 97 267t309 186q29 -98 133 -152q170 -90 219 -139t57 -168q0 -35 -18 -219
q53 -12 53 -64l-2 -12v-2l-31 -184q-4 -20 -22 -31l-47 -25q-41 -111 -115 -178l21 -131q10 -43 47 -65l606 -308q72 -37 72 -118z" />
    <glyph glyph-name="uniE038" unicode="&#xe038;" horiz-adv-x="2547" 
d="M1815 639h131v131h49v-131h131v-49h-131v-131h-49v131h-131v49zM2241 -190v-76q0 -12 -11 -13h-1913q-10 0 -10 13v76q0 84 72 118l604 308q41 23 47 65l21 131h2q-74 68 -115 176l-51 27q-18 10 -23 31l-30 184v14q0 53 51 64q-25 158 -23 225q8 157 97 267t309 186
q29 -98 133 -152q170 -90 219 -139t57 -168q0 -35 -18 -219q53 -12 53 -64l-2 -12v-2l-31 -184q-4 -20 -22 -31l-47 -25q-41 -111 -115 -178l21 -131q10 -42 47 -65l606 -308q72 -37 72 -118z" />
    <glyph glyph-name="uniE039" unicode="&#xe039;" horiz-adv-x="2041" 
d="M1008 -29q-68 0 -117 45t-60 111q-193 7 -331 19t-173 40q-34 28 -14 89q21 61 59 135t74 204t37 267q0 266 108 426t277 159q0 49 20 82q20 34 60 48q41 15 65 14q158 0 161 -144q172 0 280 -160t107 -425q1 -135 37 -267t74 -204q38 -74 58 -136t-15 -88
q-34 -28 -140 -36q-281 -20 -389 -23q-10 -68 -60 -112t-118 -44z" />
    <glyph glyph-name="uniE040" unicode="&#xe040;" horiz-adv-x="2334" 
d="M1167 512q111 0 203 91t92 202t-92 202t-203 91t-203 -91t-92 -202t92 -202t203 -91zM1374 27q0 -23 -15 -39t-40 -17h-307q-25 1 -40 17t-16 39v174q-115 41 -200 116l-150 -86q-18 -12 -42 -6t-36 27l-151 266q-12 20 -7 43t25 35l154 80q-12 51 -12 118t12 121
l-152 84q-45 31 -18 78l153 266q10 19 37 25t47 -6l140 -102q131 113 207 139v170q1 25 23 47t44 22h275q23 0 47 -22t22 -47v-170q115 -45 205 -125l150 86q20 12 43 6t32 -25l156 -268q25 -51 -23 -78l-149 -88q12 -51 12 -113t-12 -116l147 -86q21 -10 27 -33t-6 -43
l-154 -268q-10 -20 -33 -26t-43 5l-151 88q-86 -76 -201 -116v-172z" />
    <glyph glyph-name="uniE041" unicode="&#xe041;" horiz-adv-x="2252" 
d="M1126 627q428 0 624 -151t196 -505h-1639q-1 354 195 505t624 151zM1126 709q-186 0 -318 132t-132 319q0 186 131 318t318 132t319 -132t133 -318q-1 -186 -133 -319q-132 -132 -318 -132z" />
    <glyph glyph-name="uniE042" unicode="&#xe042;" horiz-adv-x="2088" 
d="M1044 1118q230 0 394 56t164 133q0 78 -164 134t-394 56t-393 -56q-164 -56 -164 -134q0 -77 164 -133t393 -56zM307 1307q0 137 216 234t521 97q306 0 522 -97t216 -234v-15q-4 -33 -19 -59q-111 -244 -508 -506v-575l-421 -316v891q-403 264 -508 508q-16 29 -19 57v15
z" />
    <glyph glyph-name="uniE043" unicode="&#xe043;" horiz-adv-x="2048" 
d="M1202 201h119l41 958h-119zM965 201h118v958h-118v-958zM686 1159l41 -958h119l-41 958h-119zM369 1278v121h1310v-121h-118l-109 -1278h-838l-127 1278h-118zM805 1638h438v-159h-438v159z" />
    <glyph glyph-name="uniE044" unicode="&#xe044;" 
d="M735 342l84 320l234 -236zM1550 1401l236 -236l-694 -700l-236 235zM1847 0h-1437v1438h985l-123 -123h-740v-1192h1192v780l123 123v-1026zM1591 1442l140 143l235 -237l-141 -142z" />
    <glyph glyph-name="uniE045" unicode="&#xe045;" horiz-adv-x="1884" 
d="M1020 150v280q53 49 53 101q0 53 -39 91t-92 38t-91 -38q-38 -36 -38 -90t51 -102v-280h156zM532 791h820q57 1 110 -53t54 -111v-521q0 -55 -40 -95t-98 -40h-872q-57 0 -97 40t-40 95v521q0 57 53 111t110 53zM940 1501q164 1 288 -111t124 -272v-272h-219v272
q0 96 -41 150t-150 53q-110 0 -150 -53t-40 -150v-272h-220v272q0 160 122 272t286 111z" />
    <glyph glyph-name="uniE046" unicode="&#xe046;" horiz-adv-x="2160" 
d="M543 68h1075v133h-1075v-133zM1087 436h-40v266h38q20 0 37 -6q21 -13 29 -65l2 -58l-2 -65q-4 -54 -25 -63q-20 -9 -39 -9zM784 602h-39v100h37q31 0 42 -13t11 -38t-14 -43q-6 -6 -37 -6zM1516 702v68h-199v-401h65v168h134v65h-134v100h134zM981 369h117q20 0 63 16
q16 8 42 45t26 108q0 70 -5 111q-9 77 -59 103q-33 18 -63 18h-121v-401zM745 537h46q35 0 55 6q64 19 65 104q0 53 -22 82q-41 41 -82 41h-129v-401h67v168zM1417 1208h172l-172 172v-172zM1348 1407h-805v-469h1075v201h-270v268zM1683 938q27 0 47 -19t21 -47v-604
q0 -27 -19 -47t-49 -20v-133q0 -28 -18 -48t-47 -20h-1075q-27 0 -45 19t-19 49v133q-29 0 -49 19t-20 48v604q0 26 20 46t49 20v469q1 29 19 48t45 20h872l268 -267v-270z" />
    <glyph glyph-name="uniE047" unicode="&#xe047;" horiz-adv-x="2621" 
d="M1618 532q0 -42 30 -72t71 -30q42 0 73 30t31 72t-31 73q-31 30 -73 30q-41 0 -71 -30t-30 -73zM1208 532q0 -42 30 -72t72 -30t72 30t31 72q0 42 -31 73q-30 30 -72 30t-72 -30t-30 -73zM900 430q42 0 73 30t31 72t-31 73q-31 30 -73 30t-72 -30t-30 -73q0 -42 30 -72
t72 -30zM369 546q1 276 277 480t666 203q390 0 665 -205t275 -493q0 -287 -278 -491q-276 -204 -665 -204q-227 0 -428 78l-383 -197q-12 -4 -22 -4t-26 16q-15 16 -8 42l158 305q-231 194 -231 470z" />
    <glyph glyph-name="uniE048" unicode="&#xe048;" horiz-adv-x="2426" 
d="M1239 1229q338 0 579 -241q240 -242 240 -580t-240 -578t-576 -240q-335 0 -574 230q-37 37 -37 88t35 87t86 37t88 -34q166 -162 402 -162t403 168q168 168 167 406q0 238 -168 406t-405 167q-195 0 -348 -119l-176 174l323 -323q25 -23 18 -45t-40 -31l-582 -127
q-35 -6 -53 12t-10 51l127 584q8 33 29 39q22 6 46 -18l142 -142q231 191 524 191z" />
    <glyph glyph-name="uniE049" unicode="&#xe049;" horiz-adv-x="2373" 
d="M1575 716q0 34 -25 58q-24 24 -58 23q-34 0 -58 -23l-246 -250l-250 250q-24 23 -58 23t-59 -23q-23 -24 -23 -58t23 -59l250 -247l-250 -248q-23 -25 -23 -59q0 -35 24 -59t58 -24t58 25l250 250l246 -250q24 -25 58 -25t58 25t25 59q0 34 -25 58l-250 248l250 247
q25 25 25 59zM1188 1227q338 0 578 -240q240 -241 238 -579q-1 -338 -241 -578q-241 -240 -579 -239t-578 241t-237 578q0 223 109 411q110 188 298 297t412 109z" />
    <glyph glyph-name="uniE050" unicode="&#xe050;" horiz-adv-x="2621" 
d="M2212 0h-1802v164h1802v-164zM2212 328h-1802v164h1802v-164zM2212 655h-1802v164h1802v-164zM410 983v164h1802v-164h-1802z" />
    <glyph glyph-name="uniE051" unicode="&#xe051;" horiz-adv-x="2621" 
d="M2212 0h-1229v164h1229v-164zM819 0h-409v164h409v-164zM2212 328h-1229v164h1229v-164zM819 328h-409v164h409v-164zM2212 655h-1229v164h1229v-164zM819 655h-409v164h409v-164zM983 983v164h1229v-164h-1229zM819 983h-409v164h409v-164z" />
    <glyph glyph-name="uniE052" unicode="&#xe052;" 
d="M842 6h686q18 0 30 -12t13 -30q0 -18 -12 -30q-12 -14 -31 -14h-686q-18 0 -31 13q-12 13 -12 31t12 30q13 12 31 12zM848 174h686q16 0 30 -12t13 -30q0 -18 -13 -32q-13 -12 -30 -12h-686q-18 0 -32 12q-13 12 -13 30t13 32q14 12 32 12zM1667 -170v457q0 8 -8 8h-936
q-6 0 -6 -8v-457q0 -6 6 -6h936q8 0 8 6zM1683 647q16 0 29 12q12 11 12 29t-12 30t-28 13q-16 0 -29 -12q-13 -11 -13 -29t12 -30t29 -13zM664 693q0 -17 12 -30t31 -14h831q18 -1 30 13t13 31q0 17 -12 31t-31 13h-831q-18 0 -31 -13q-12 -14 -12 -31zM1620 1186h-913
v-268h913v268zM1749 918h88q53 0 91 -38t38 -92v-735q0 -53 -38 -91t-91 -38h-16v-129q-35 -104 -113 -102h-1022l-6 2q-41 8 -72 37t-30 71v121h-39q-53 0 -92 38q-38 38 -37 91v735q0 53 37 92q38 38 92 38h39v301q10 39 38 67t68 29h961q104 -35 104 -111v-286z" />
    <glyph glyph-name="uniE053" unicode="&#xe053;" 
d="M1187 297q81 0 137 58q56 59 56 141t-56 138t-137 56t-138 -56t-57 -138t56 -140q58 -58 139 -59zM1722 791q20 -1 34 -15t13 -36q0 -22 -13 -36q-14 -14 -34 -14t-34 14t-14 36q0 21 14 36t34 15zM895 495q0 122 86 209t206 87q120 1 206 -87t86 -210t-86 -207
q-86 -86 -207 -86t-206 86t-85 208zM1884 207v573q0 41 -41 81t-82 40h-1149q-41 0 -81 -40t-39 -81v-573q0 -41 40 -83t80 -42h1149q39 0 81 42t42 83zM612 983h1149q81 0 143 -61t62 -142v-573q0 -83 -62 -145t-143 -62h-1149q-80 0 -141 62t-61 145v573q0 82 61 142
t141 61zM1513 985h-83v51q0 39 -40 76t-81 37h-246q-41 0 -82 -41t-41 -82l4 -41h-86v41q0 82 62 143t143 62h246q82 1 143 -61t61 -144v-41z" />
    <glyph glyph-name="uniE054" unicode="&#xe054;" 
d="M1270 70q0 -33 -25 -58q-25 -24 -57 -24t-58 24q-25 24 -24 58v336q0 34 24 58t58 24t58 -26q24 -24 24 -56v-336zM1188 629q-41 1 -70 29t-28 69q0 41 28 69q29 28 70 28q42 0 70 -28t28 -69t-28 -69t-70 -29zM1896 434q0 145 -53 277q-57 129 -151 227
q-221 207 -506 207t-502 -207q-94 -98 -152 -227q-53 -131 -53 -277t53 -276q55 -125 152 -228q226 -204 504 -204t504 204q96 102 151 228q53 131 53 276zM1188 1253q340 1 580 -239t239 -580q0 -340 -240 -580q-239 -240 -579 -239q-340 0 -580 240q-240 239 -240 579
t240 580q240 239 580 239z" />
    <glyph glyph-name="uniE055" unicode="&#xe055;" horiz-adv-x="1966" 
d="M1082 204q32 26 32 78t-35 70q-10 8 -35 21l-40 12v-209q46 2 78 28zM965 684q-51 0 -74 -20q-27 -18 -27 -54t11 -57q11 -20 45 -33q33 -12 45 -14v178zM850 305q0 -129 115 -129v217q-89 23 -146 64t-57 130t61 132q57 45 142 45v72h39v-72q82 0 139 -43
q57 -49 57 -131h-102q-4 94 -94 94v-188l77 -25q37 -14 70 -37q64 -56 65 -122q1 -111 -58 -162t-154 -54v-69h-39v69q-98 0 -158 56q-59 59 -59 153h102zM982 963q-220 0 -376 -157t-156 -376t156 -376q156 -156 376 -156t377 156t157 376q0 219 -157 376t-377 157z
M983 1044q254 0 434 -180t180 -434t-180 -434t-434 -180t-434 180t-180 434t180 434t434 180z" />
    <glyph glyph-name="uniE056" unicode="&#xe056;" horiz-adv-x="1654" 
d="M1098 246v-99h-148v99h148zM901 246v-99h-147v99h147zM705 246v-99h-148v99h148zM1098 393v-98h-148v98h148zM901 393v-98h-147v98h147zM705 393v-98h-148v98h148zM1098 541v-99h-148v99h148zM901 541v-99h-147v99h147zM705 541v-99h-148v99h148zM1147 98v492h-639v-492
h639zM1245 0h-835v737h98v-98h197v98h245v-98h197v98h98v-737zM999 688v98h99v-98h-99zM557 688v98h98v-98h-98z" />
    <glyph glyph-name="uniE057" unicode="&#xe057;" horiz-adv-x="2015" 
d="M983 117q0 63 30 74t46 -15t10 -60q-11 -59 -82 -44q-8 0 -4 18v27zM1303 158h-80q2 29 21 40t39 0t20 -40zM1460 135q0 57 66 47v66q-49 3 -67 -28q-7 -13 -9 -15l-2 39h-59l2 -219l69 -2v112zM872 244h-69q-4 -23 -1 -90t13 -84q11 -17 19 -24t12 -11q4 -3 33 -11
t34 -8v-84q61 0 70 2v82q105 6 123 25q44 46 33 113q-10 82 -76 92q-43 10 -84 -31q-2 0 -6 -4l-2 31l-60 2l2 -172q-23 2 -31 20t-10 115v37zM1223 111h141q10 106 -59 133q-39 12 -78 -2t-58 -52q-31 -47 -4 -108q40 -92 189 -51l-8 47q-4 0 -41 -7t-69 13q-15 11 -13 27z
M766 330h-70v-117h-112v117h-70v-307h70v127h112v-127h70v307zM838 342q-14 0 -26 -11t-11 -25q0 -14 11 -26q27 -27 51 0q11 11 11 25q0 13 -11 25t-25 12zM393 293q-24 72 -24 116q0 139 116 187q25 10 257 66t274 65l178 43q61 16 100 16t82 -24q76 -45 97 -129l126 -539
q41 -172 47 -202t-7 -70q-13 -41 -42 -63q-4 -3 -6 -5h-1067q-6 29 -21 90t-22 90z" />
    <glyph glyph-name="uniE058" unicode="&#xe058;" horiz-adv-x="2588" 
d="M1563 164q8 53 92 41q-5 -45 -21 -63t-45 -14q-28 3 -26 36zM960 127q-30 3 -32 37q0 34 16 90q14 20 48 17t38 -31q6 -59 -26 -99q-14 -18 -44 -14zM1903 127q-39 0 -40 40q-1 39 15 71q27 53 94 26q-4 -12 -8 -42q-13 -95 -61 -95zM1126 227q2 17 16 31t36 15
q49 2 39 -46h-91zM842 293v-2q-19 -117 -33 -185h39q14 109 33 187h-39zM1450 129q-30 -1 -35 15q-6 16 -6 42q10 117 119 76q0 10 4 31q-92 14 -120 -16q-28 -31 -36 -69q-23 -93 47 -105q39 -6 76 10q0 2 6 28q-25 -12 -55 -12zM1247 207q10 43 4 59q-10 35 -63 31
q-120 -9 -109 -141q10 -76 146 -45l6 30q-63 -27 -92 -9t-17 75h125zM1679 106l21 156q0 35 -64 35l-65 -4q-4 -20 -8 -31q94 23 100 -6q6 -14 -4 -29q-109 10 -127 -46t18 -75q29 -10 58 0t41 29l-2 -29h32zM1012 113q43 23 56 91t-34 88q-47 19 -90 -16q0 4 4 17h-35
q-14 -115 -47 -270h39q10 83 17 104q6 -25 40 -25t50 11zM1778 293h-33q-20 -127 -33 -187h39q0 48 19 120q6 18 24 32t45 6l6 27q-41 20 -73 -29q6 12 6 31zM1290 293q0 -8 -30 -187h36q21 119 21 121q23 57 69 37l7 29q-45 18 -74 -31l6 31h-35zM727 106h43q29 176 47 263
h-45l-18 -107h-119q4 18 10 54t10 53h-43q-8 -39 -23 -128t-24 -135h43q4 20 12 64t11 66q80 4 119 0q-17 -87 -23 -130zM854 362q-12 -20 -2 -34q12 -8 29 0q8 6 11 19t-5 22q-17 9 -33 -7zM1952 135l-2 -29h35q4 53 43 267h-39q-8 -51 -15 -82q-68 20 -110 -20t-39 -107
q0 -31 13 -45q13 -13 44 -17t41 4t23 19zM713 602h1466q-37 -182 -81 -408t-54 -266q-27 -113 -207 -112h-1427q20 98 57 289t48 241t19 90q7 39 11 60q29 100 168 106z" />
    <glyph glyph-name="uniE059" unicode="&#xe059;" horiz-adv-x="1867" 
d="M637 109l-41 -64q52 -33 112 -28t105 49l-51 53q-66 -47 -125 -10zM1180 18q70 0 120 48t54 120l-76 2q-2 -38 -30 -66t-68 -28l-25 2l-31 -69q33 -9 56 -9zM592 190q0 41 30 71t71 30q42 0 73 -35l-174 -74v8zM1079 192q0 44 31 74l-39 64q-68 -50 -68 -140t76 -141
l39 66q-39 33 -39 77zM687 365q-67 1 -118 -51t-51 -114t29 -106l313 137q-14 57 -60 95t-113 39zM1191 369q-50 0 -77 -15l31 -67q14 6 35 6q68 0 92 -66l78 9q-16 57 -62 95t-97 38zM946 119v319h-63v-329q2 -41 32 -56l64 -26l25 63l-54 21q-4 2 -4 8zM936 778
q234 0 398 -166t165 -399q0 -233 -165 -399t-399 -166t-400 166t-166 399t166 399q167 166 401 166z" />
    <glyph glyph-name="uniE060" unicode="&#xe060;" horiz-adv-x="2420" 
d="M1485 983l547 -135l-416 -414l143 -547l-549 275l-548 -275l133 547l-406 414l547 135l274 547z" />
    <glyph glyph-name="uniE061" unicode="&#xe061;" horiz-adv-x="2023" 
d="M1333 184h92q17 0 29 -11t12 -29t-13 -30q-13 -11 -28 -12h-92v82zM1454 266q0 -16 -11 -26t-24 -11l-86 2v74h84q16 0 27 -11q10 -12 10 -28zM1391 664h223v-773q0 -63 -45 -100t-96 -37h-228v301h236q31 1 61 19t29 56q0 38 -28 57t-58 20q70 14 69 72q0 37 -28 54
q-29 17 -66 17h-215v164q1 58 45 104t101 46zM827 514q0 59 44 104t102 46h223v-773q0 -63 -45 -100t-96 -37h-228v342q66 -51 187 -49q72 0 139 21v61q-146 -69 -211 -6q-33 31 -33 82t35 80t94 25t115 -36v66q-43 12 -113 18q-143 10 -213 -47v203zM410 514q0 59 44 104
t101 46h223v-773q0 -63 -45 -100t-96 -37h-227v312q47 -12 132 -18q197 -13 206 120v182h-130v-188q-8 -72 -100 -66q-59 4 -108 33v385z" />
    <glyph glyph-name="uniE062" unicode="&#xe062;" 
d="M1188 123q42 0 70 -29q28 -30 28 -70t-29 -69t-69 -29t-71 29q-30 29 -30 70t30 69t71 29zM1165 266q-35 0 -59 25t-23 57v500q0 34 24 58q25 24 59 24t58 -25t23 -57v-500q1 -34 -23 -58t-59 -24zM1188 -303q305 0 521 216t216 521t-216 521t-521 216t-521 -216
t-216 -521t216 -521t521 -216zM1187 1253q339 1 579 -239t241 -580q0 -340 -241 -580q-242 -240 -580 -239q-338 0 -578 240q-240 239 -240 579t240 580q240 239 579 239z" />
    <glyph glyph-name="uniE063" unicode="&#xe063;" horiz-adv-x="2289" 
d="M1393 2h34l-8 -35h-35zM1255 8v17h-41l5 -82q0 -7 4 -11t37 -4h24l6 29h-30q-4 4 -5 8v21h23q20 0 29 22l2 19h-31l-4 -15v-2l-2 -2h-17zM1442 59l-6 -26q-12 -2 -19 -4l-20 -9l10 39h35zM1204 72h70l-4 -15q-2 2 -8 0h-60zM1042 -72l13 -2h55l8 33l-24 -4q-14 2 -17 6
l8 39h50l6 29h-47l6 24h47l6 29h-119l-6 -29h27l-6 -24h-27l-6 -29h26l-12 -53q0 -13 12 -19zM1581 -72h27l6 31h-6l-11 2q-2 2 -2 6l-8 33h-20l8 12h51l6 25h-47l6 24h47l7 29h-140l-8 -29h51l-6 -24h-51l-6 -25h45l-31 -49l-6 -6l-8 -2h-12l-9 -29h33q20 0 35 19l20 32
l7 -32q4 -17 22 -17zM1217 117h67l-4 -17h-37l-35 -16zM1454 119l-6 -29q-10 0 -16 -2l-21 -8l8 39h35zM1579 98l-2 29q-4 2 -6 4l-2 16h-47l2 -30q0 -20 28 -19h27zM1466 -63l9 30h-13l35 152h16l7 31q-63 -2 -74 -5l-23 -12l4 17h-45l-43 -185h-8l-6 -28h86l-2 -11l45 11
h12zM1176 -74h32l6 33l-26 -2q-6 0 -6 4q-4 0 0 10l14 60h86q8 4 16 7t9 9q4 2 10 25l18 78l-67 -3q-20 -2 -29 -6l-22 -14l6 23h-43l-45 -195l-5 -14q0 -2 9 -11q8 -4 37 -4zM1051 88q17 0 36 14h66l8 31h-49l6 17h-47l-12 -23q-2 -6 -6 -10h-17l-6 -29h21zM1529 231
q-13 -1 -13 9t6 38t21 27q15 0 16 -24l-5 -11q0 -8 -4 -18t-6 -16t-15 -5zM1058 233q-11 -1 -11 9t6 38t23 27t8 -31t-13 -34q-2 -9 -13 -9zM987 311q-40 -8 -51 -8v-2h-2q-4 -9 -4 -29t-12 -47l-5 -18v-2h25q10 2 27 0v2h2q2 10 2 18l8 31q0 11 6 27l6 26h-2v2zM1589 205h2
l17 76q2 8 6 26l6 27v2q-45 -8 -53 -8l-2 -2v-4q-31 28 -70 -7q-17 -18 -27 -58t23 -50q29 -14 49 6q0 -6 -2 -8l2 -2q20 2 49 2zM1690 338l-50 -10v-2l9 -68q4 -14 6 -53q-33 -64 -47 -78h-15l-6 -29h29q25 0 35 19l125 219l-2 2q-41 -8 -50 -8l-2 -2q-8 -20 -15 -32
t-11 -26q-2 2 -2 4l-2 62zM1062 203q52 0 71 67q8 37 -7 52q-10 16 -44 16q-65 0 -81 -70q-12 -47 21 -59q12 -6 40 -6zM1222 301q8 0 7 -12l-10 -58l-7 -24v-2q27 2 48 0l2 2q2 6 4 24t10 49q14 58 -18 58q-24 0 -46 -14l5 14l-3 2q-23 -6 -51 -8l-2 -2q-8 -68 -24 -123v-2
q27 2 49 0l2 2q4 25 8 41l10 49q8 4 16 4zM886 338q-17 0 -34 -6l-12 -8l4 14l-2 2q-23 -6 -51 -8l-3 -2q-8 -68 -24 -123l2 -2q20 2 47 2h2q4 25 8 41l11 49q8 4 14 4q11 0 9 -17l-11 -53l-6 -24l2 -2q23 2 47 0l2 2q8 42 15 74t1 43q-4 14 -21 14zM942 315q24 -9 46 7
t2 26t-44 -4q-20 -16 -4 -29zM1382 322h-10l2 2l15 67v4l2 2h6l33 -4q18 -5 12 -31t-20 -33q-15 -7 -40 -7zM1503 385q0 45 -80 45h-80l-16 -76l-37 -149h58l8 47l8 31l4 4h4q63 0 92 19t35 59q4 12 4 20zM565 256q0 -52 74 -51q41 1 70 17t41 67l36 139v2q-49 -2 -53 0
l-26 -127q-18 -61 -52 -61q-25 0 -28 24v6l4 33q29 109 33 123v2q-61 -2 -64 0v-8l-29 -123l-2 -10zM1602 -246h-373q-33 0 -51 23q-16 23 -11 57l15 64h-25l-12 -58q-13 -51 22 -86h-350q-33 0 -49 23q-20 23 -10 57l78 338h-25l-78 -332q-11 -52 23 -86h-281q-33 0 -49 23
q-20 23 -10 57l172 746q8 36 39 60t65 24h271q-47 -33 -56 -80l-47 -197h25l45 193q8 36 39 60t65 24h340q-45 -31 -57 -80l-45 -197h24l45 193q8 36 39 60t66 24h373q33 0 51 -23t8 -57l-45 -197h2l-129 -547q-10 -34 -41 -60t-63 -26z" />
    <glyph glyph-name="uniE064" unicode="&#xe064;" horiz-adv-x="1994" 
d="M504 563q0 -176 126 -302t302 -126t301 126t125 302t-125 301t-301 125t-302 -125t-126 -301zM932 0q-233 0 -398 165t-165 397t165 397t397 165t398 -165t166 -395t-164 -398l295 -363l-110 -90l-297 367q-131 -80 -287 -80z" />
    <glyph glyph-name="uniE065" unicode="&#xe065;" horiz-adv-x="1638" 
d="M1147 246v368q0 16 -12 28t-29 13h-574q-16 0 -28 -12t-12 -29v-368q0 -16 12 -28t28 -13h574q16 0 29 12q12 13 12 29zM532 737h574q51 0 87 -36t36 -87v-368q0 -51 -36 -87t-87 -36h-162q2 -39 20 -61t40 -22q20 0 20 -20t-20 -20h-369q-20 0 -21 20q0 20 21 21
q20 0 39 21q18 22 20 61h-162q-51 0 -87 36t-35 87v368q0 51 35 87q36 36 87 36z" />
    <glyph glyph-name="uniE066" unicode="&#xe066;" horiz-adv-x="1392" 
d="M696 0q16 0 29 12q12 12 12 28t-12 30q-13 12 -29 12t-28 -12q-29 -29 0 -58q12 -12 28 -12zM901 164v491q0 17 -12 29t-29 12h-328q-16 0 -28 -12t-12 -29v-491q0 -16 12 -28t28 -13h328q16 0 29 12q12 13 12 29zM532 778h328q51 0 87 -36t36 -87v-573q0 -51 -36 -87
t-87 -36h-328q-51 0 -87 36t-35 87v573q0 51 35 87q36 36 87 36z" />
    <glyph glyph-name="uniE067" unicode="&#xe067;" horiz-adv-x="1638" 
d="M799 123h41q20 0 20 20t-20 21h-41q-20 0 -20 -20t20 -21zM1106 205v327q0 16 -12 28t-29 13h-492q-16 0 -28 -12t-13 -29v-327h574zM1188 532v-331q41 -13 41 -49q1 -36 -17 -53t-45 -17h-696q-27 0 -44 17t-17 52t41 50v331q0 51 35 88q36 36 87 35h492q51 1 87 -35
t36 -88z" />
    <glyph glyph-name="uniE068" unicode="&#xe068;" horiz-adv-x="1474" 
d="M737 0q16 0 29 12q12 12 12 28t-12 30q-12 12 -28 12t-29 -12q-29 -29 0 -58q12 -12 28 -12zM983 164v491q0 17 -12 29t-29 12h-410q-16 0 -28 -12t-12 -29v-491q0 -16 12 -28t28 -13h410q16 0 29 12q12 13 12 29zM532 778h410q51 0 87 -36t36 -87v-573q0 -51 -36 -87
t-87 -36h-410q-51 0 -87 36t-35 87v573q0 51 35 87q36 36 87 36z" />
    <glyph glyph-name="uniE500" unicode="&#xe500;" horiz-adv-x="2686" 
d="M1147 431q0 -81 57 -139t138 -59q82 1 140 59t58 139t-58 138t-140 57t-138 -56q-57 -58 -57 -139zM1343 676q103 0 175 -72t72 -174t-72 -174t-174 -72t-175 72q-72 72 -71 174q0 102 71 174q72 72 174 72zM1774 811q-196 0 -426 43q-228 43 -438 43t-402 -35v-846
q194 33 402 33t438 -43t428 -43t403 37v846q-209 -35 -405 -35zM2277 903v-946q0 -39 -41 -47q-244 -45 -452 -45t-436 43t-448 43t-433 -41q-25 -4 -41 11t-16 36v946q0 43 39 49q233 43 451 43t448 -43t438 -43q209 0 432 43q25 4 42 -12t17 -37zM1343 1094q-25 0 -24 24
q0 162 151 278q152 116 365 115q25 0 25 -24q0 -9 -8 -17t-17 -8q-195 0 -331 -100t-136 -244q0 -8 -8 -16t-17 -8zM1958 1489q0 -31 -23 -53l-174 -174q-14 -14 -35 0q-18 16 0 34l175 174q16 17 0 35l-175 174q-18 16 0 35q18 14 35 0l174 -174q23 -20 23 -51z" />
    <glyph glyph-name="uniE501" unicode="&#xe501;" horiz-adv-x="2686" 
d="M729 -260q0 30 23 51l174 174q6 8 16 8t19 -8q14 -18 0 -35l-175 -174q-18 -17 0 -35l175 -172q16 -18 -1 -35t-34 1l-174 172q-23 23 -23 53zM1343 133q25 0 25 -24q0 -162 -152 -278t-364 -116q-25 0 -25 25q1 10 9 17t16 7q195 0 331 100t136 245q0 10 8 17t16 7z
M1343 993q-82 0 -139 -57t-57 -139q0 -81 57 -139t139 -58t140 57q57 57 57 139t-57 140q-58 57 -140 57zM1343 551q-102 0 -174 73t-71 173q0 100 71 173q72 72 174 72t175 -72q72 -73 72 -173t-73 -173q-72 -73 -174 -73zM922 416q204 0 432 -45q228 -41 422 -41t403 35
v845q-410 -69 -844 11q-225 43 -421 43t-406 -35v-848q210 35 414 35zM410 324v946q0 41 41 47q227 45 451 45t452 -43t432 -43q205 0 434 41q23 6 39 -10q18 -12 18 -37v-946q0 -43 -39 -50q-233 -43 -451 -43q-217 0 -447 43t-440 43t-431 -43q-25 -3 -42 11t-17 39z" />
    <glyph glyph-name="uniE502" unicode="&#xe502;" horiz-adv-x="2588" 
d="M1294 418q82 0 140 58q57 58 57 139t-57 139q-58 58 -140 57q-82 0 -139 -57q-57 -56 -57 -138t57 -140t139 -58zM1294 860q102 0 174 -72t72 -174t-72 -174t-174 -72t-174 72t-71 174q0 102 71 174q72 72 174 72zM2081 197v835q-1 20 -15 34t-34 15h-1475q-21 0 -35 -14
t-14 -35v-835q0 -21 14 -35t35 -15h1475q20 0 34 15t15 35zM901 1229h-147v-49h147v49zM950 1180h1082q61 0 104 -43t43 -105v-835q0 -59 -43 -103t-104 -45h-1475q-61 0 -104 44t-43 104v835q0 60 43 104t104 44h148v73q0 25 24 25h197q25 0 24 -25v-73z" />
    <glyph glyph-name="uniE503" unicode="&#xe503;" horiz-adv-x="2785" 
d="M1329 442l107 -80q12 -8 8 -26l-39 -127l108 76q16 10 29 0l109 -76l-37 127q-6 16 8 26l107 80l-134 2q-18 4 -22 17l-45 127l-43 -127q-6 -12 -23 -17zM1359 123q-5 0 -15 7t-7 26l56 178l-150 112q-14 10 -8 27q4 16 22 16l187 5l61 176q5 16 23 16t24 -16l60 -176
l188 -5q16 0 23 -16q4 -18 -8 -27l-150 -112l53 -178q6 -16 -9 -28t-28 -1l-153 106l-152 -106q-12 -4 -17 -4zM2288 20v795q0 17 -14 31t-31 14h-1424q-19 0 -31 -13t-12 -32v-795q0 -18 12 -31t31 -14h1424q17 -1 31 13t14 32zM674 815q0 59 43 101t102 42h1192l-47 263
q-8 33 -41 32h-8l-1358 -233q-41 -8 -33 -47l135 -744q0 -14 15 -24v610zM2243 958q59 0 102 -42t43 -101v-795q0 -59 -43 -101t-102 -42h-1424q-59 0 -102 42t-43 101v80q-43 8 -75 38t-40 73l-135 745q-10 56 25 104t92 56l1357 234q8 2 42 2t73 -32t49 -81l52 -281h129z
" />
    <glyph glyph-name="uniE504" unicode="&#xe504;" horiz-adv-x="2588" 
d="M1737 344h147v98h-147v-98zM1712 492h197q25 0 24 -19v-158q0 -20 -24 -20h-197q-25 0 -24 20v158q-1 19 24 19zM680 492h737q25 0 25 -25t-25 -25h-737q-25 0 -25 25t25 25zM680 688h1229q25 0 25 -24t-25 -25h-1229q-25 1 -25 25t25 24zM557 147h1475q20 1 34 15t15 35
v835q-1 20 -15 34t-34 15h-1475q-21 0 -35 -14t-14 -35v-835q0 -20 14 -35t35 -15zM557 1180h1475q61 0 104 -42t43 -102v-843q0 -59 -43 -101t-104 -43h-1475q-61 0 -104 42t-43 102v843q0 60 43 102t104 42z" />
    <glyph glyph-name="uniE505" unicode="&#xe505;" horiz-adv-x="2752" 
d="M1957 92q54 0 83 49q12 23 12 49t-12 48q-29 49 -83 49t-83 -49q-14 -20 -14 -48t12 -49q31 -49 85 -49zM796 92q54 0 83 49q14 25 14 49t-14 48q-29 49 -83 49t-83 -49q-29 -51 0 -99q29 -47 83 -47zM1860 770v-414q40 27 102 27t113 -41t67 -104h105v337l-195 195h-192
zM506 238h102q16 63 68 104t121 41t119 -41t67 -104h780v821h-1257v-821zM2343 580v-338q0 -41 -29 -71t-67 -30h-105q-16 -63 -67 -104t-119 -41t-119 41t-68 104h-786q-15 -63 -67 -104t-120 -41t-119 41q-52 41 -69 104h-151q-19 -1 -33 13t-14 34v920q0 20 13 34t34 13
h1353q20 0 34 -13t16 -34v-242h192q41 1 70 -28l192 -193q29 -29 29 -65z" />
    <glyph glyph-name="uniE506" unicode="&#xe506;" horiz-adv-x="2686" 
d="M1342 516q-6 0 -13 4l-821 502v-850h1671v850l-823 -502q-8 -4 -14 -4zM2140 1057h-1595l798 -488zM459 1155h1769q20 0 34 -14t15 -35v-983q0 -21 -14 -35t-35 -14h-1769q-20 0 -35 14q-14 14 -14 35v983q0 20 14 35q15 14 35 14z" />
    <glyph glyph-name="uniE507" unicode="&#xe507;" horiz-adv-x="2686" 
d="M2277 123q0 -21 -14 -35t-35 -14h-1769q-20 0 -35 14q-14 14 -14 35v956l903 -547q10 -14 28 -14t29 8l907 553v-956zM2228 1155q29 0 41 -22l-921 -564l-930 564q12 23 41 22h1769z" />
    <glyph glyph-name="uniE508" unicode="&#xe508;" horiz-adv-x="2686" 
d="M1417 369h-737q-25 1 -25 25t25 24h737q25 0 25 -24t-25 -25zM1556 346q-20 0 -26 14q-8 23 12 33q31 14 86 74l33 35q13 10 27 4t14 -29t-2 -33l39 17q12 8 29 -1t18 -36v-2q0 13 22 9q22 -3 31 -13q21 -20 166 -8q27 0 27 -23q4 -27 -23 -27q-168 -14 -207 21
q-9 -9 -33 -14q-40 0 -40 36q-84 -44 -84 11q-69 -68 -89 -68zM2007 565h-1327q-25 0 -25 25t25 24h1327q25 0 25 -24t-25 -25zM508 172h1671v885h-1671v-885zM2277 1106v-983q0 -21 -14 -35t-35 -14h-1769q-20 0 -35 14q-14 14 -14 35v983q0 20 14 34t35 15h1769
q20 0 35 -14q14 -15 14 -35z" />
    <glyph glyph-name="uniE509" unicode="&#xe509;" horiz-adv-x="2441" 
d="M1688 25h245v196h-245v-196zM1638 221h-245v-196h245v196zM1343 221h-245v-196h245v196zM1049 221h-246v-196h246v196zM754 221h-246v-196h246v196zM1688 270h245v197h-245v-197zM1638 467h-245v-197h245v197zM1343 467h-245v-197h245v197zM1049 467h-246v-197h246v197z
M754 467h-246v-197h246v197zM1688 516h245v197h-245v-197zM1393 516h245v197h-245v-197zM1098 516h245v197h-245v-197zM803 516h246v197h-246v-197zM754 713h-246v-197h246v197zM1933 1057h-295q0 -21 -14 -35t-34 -14t-36 14q-14 14 -14 35h-270q0 -21 -14 -35t-35 -14
q-20 0 -35 14q-14 14 -15 35h-270q0 -21 -14 -35q-15 -14 -35 -14t-35 14q-14 14 -14 35h-295v-295h1425v295zM1638 1155h344q20 0 34 -14t16 -35v-1131q0 -20 -14 -34t-36 -15h-1523q-21 0 -35 14t-14 35v1131q0 20 14 34t35 15h344q0 21 14 35q15 14 35 14t34 -14t15 -35
h270q1 21 15 35t34 14t35 -14q14 -14 15 -35h270q0 21 14 35t34 14t36 -14q14 -15 14 -35z" />
    <glyph glyph-name="uniE510" unicode="&#xe510;" horiz-adv-x="2437" 
d="M1419 465l-133 4q-18 0 -22 16l-45 125l-43 -125q-4 -16 -23 -16l-133 -4l106 -80q14 -10 9 -27l-39 -127l110 76q14 10 27 0l108 -76l-36 127q-6 16 8 27zM1305 518l186 -4q14 0 22 -18q4 -18 -10 -27l-147 -113l53 -178q6 -16 -8 -26t-29 0l-153 106l-152 -106
q-13 -13 -28 -2q-15 12 -9 28l53 178l-149 113q-12 10 -8 27q8 18 22 18l187 4l61 176q8 16 24 16t23 -16zM506 811v-786h1425v786h-1425zM1931 860v197h-295q0 -21 -14 -35t-34 -14t-36 14q-14 14 -14 35h-270q0 -21 -14 -35t-34 -14q-21 0 -36 14q-14 14 -15 35h-268
q0 -21 -14 -35q-15 -14 -35 -14t-35 14q-14 14 -14 35h-297v-197h1425zM1636 1155h344q20 0 34 -14t14 -35v-1131q0 -20 -14 -34t-34 -15h-1521q-21 0 -35 14t-14 35v1131q0 20 14 34t35 15h344q0 17 14 33q15 16 35 16t34 -15t15 -34h268q1 17 15 33t34 16t35 -15
q14 -15 15 -34h270q0 17 14 33t34 16t36 -15q14 -16 14 -34z" />
    <glyph glyph-name="uniE511" unicode="&#xe511;" horiz-adv-x="2539" 
d="M1319 25h663v737h-663v-737zM557 762v-737h664v737h-664zM1319 860h713v98h-713v-98zM1221 958h-713v-98h713v98zM1577 1227q-27 27 -67 27t-76 -26q-35 -26 -66 -122q218 9 221 86q2 16 -12 35zM963 1227q-34 -44 16 -79q51 -36 192 -42q-31 96 -65 122t-76 26
q-40 0 -67 -27zM2081 1057q21 -1 35 -15t14 -34v-197q0 -21 -14 -35t-35 -14v-787q-1 -20 -15 -34t-34 -15h-1524q-20 0 -34 14t-15 35v787q-20 0 -35 14q-14 14 -14 35v197q0 20 14 34t35 15h481q-74 42 -85 114q-11 71 39 125t129 56q79 0 130 -37q74 -51 117 -193
q43 141 116 193q51 37 130 37q80 0 130 -56t39 -127q-11 -72 -86 -112h482z" />
    <glyph glyph-name="uniE512" unicode="&#xe512;" horiz-adv-x="2490" 
d="M1491 614q31 0 53 -22t21 -52q0 -30 -22 -52q-23 -22 -53 -22t-52 22t-21 53q-1 31 21 52t53 21zM1982 467v147q0 20 -14 34t-35 16h-442q-51 0 -87 -36t-36 -87t36 -87t87 -36h442q20 0 35 14q14 15 14 35zM1933 319h-442q-92 0 -157 65t-64 157q0 93 64 157t157 64h442
v246q0 20 -14 34t-35 15h-1376v-983q0 -20 14 -34t35 -15h1327q20 0 35 14q14 14 14 35v245zM1737 1253h-1180q-21 0 -35 -14q-14 -15 -14 -35t14 -34t35 -15h1229v49q0 20 -14 35q-15 14 -35 14zM2032 1008v-283q49 -45 49 -111v-147q0 -66 -49 -111v-282q0 -60 -43 -104
t-105 -44h-1327q-61 0 -104 43t-43 105v1130q0 60 43 104t104 44h1180q61 0 104 -43t43 -105v-49q60 0 104 -43t44 -104z" />
    <glyph glyph-name="uniE513" unicode="&#xe513;" horiz-adv-x="2043" 
d="M508 -45q0 -4 1 -10t1 -8l18 8l1088 657q12 8 20 16q-4 8 -20 19l-1088 657l-18 9l-2 -21v-1327zM499 1403q38 0 79 -25l1089 -657q70 -41 70 -101t-70 -102l-1089 -657q-41 -25 -80 -25t-64 32t-24 87v1327q0 55 25 88q26 33 64 33z" />
    <glyph glyph-name="uniE514" unicode="&#xe514;" horiz-adv-x="2236" 
d="M1741 766q0 -25 -25 -25t-24 25q0 66 -39 123t-101 82q-25 8 -14 30q8 23 31 15q78 -28 125 -98t47 -152zM1831 768q1 150 -105 258t-249 109q-97 -1 -183 -51t-133 -136q-14 -26 -43 -26t-43 26q-47 86 -132 136t-183 51q-142 0 -248 -109t-106 -258q0 -249 503 -691
q109 -95 209 -171q229 174 438 390q121 124 198 251t77 221zM1477 1233q186 0 319 -136t133 -329q0 -109 -80 -248t-184 -253q-104 -113 -229 -225q-276 -246 -318 -247q-43 -1 -243 179q-199 180 -304 293q-104 114 -184 253t-80 248q0 193 133 329t320 136q219 0 358 -172
q140 172 359 172z" />
    <glyph glyph-name="uniE515" unicode="&#xe515;" horiz-adv-x="2187" 
d="M625 907q-3 -303 121 -529t348 -327q223 99 347 325t124 531q-231 33 -471 174q-236 -139 -469 -174zM1095 0q-21 0 -93 44t-152 120t-137 172t-100 253q-42 157 -38 341q0 20 21 24q244 31 485 176q14 10 25 0q242 -145 485 -176q23 -4 23 -24q2 -184 -39 -341t-99 -253
t-138 -172t-150 -120q-72 -44 -93 -44zM1706 1094q-279 0 -612 227q-334 -227 -613 -227q-30 0 -63 4q-31 -262 20 -486t135 -356t204 -238t190 -144t127 -60q102 35 182 94q167 122 226 197t110 151q80 120 140 354q28 106 29 226t-9 262q-37 -4 -66 -4zM1094 -289
q-10 -1 -58 17t-140 72q-91 54 -191 142q-99 88 -177 204q-189 281 -214 607q-13 183 12 408q2 19 19 33t47 7t89 -7q262 0 584 227q31 20 57 0q324 -227 584 -227q66 0 96 10q49 8 60 -43q51 -459 -67 -754t-305 -459q-188 -165 -380 -235q-6 -2 -16 -2z" />
    <glyph glyph-name="uniE516" unicode="&#xe516;" horiz-adv-x="2293" 
d="M705 -25q80 0 138 44q58 43 58 103t-58 104t-138 44q-81 0 -139 -44t-58 -103t58 -104q59 -44 139 -44zM1589 123q80 0 138 44t59 103q0 60 -58 104t-139 44q-80 0 -138 -44t-58 -104t58 -103q58 -44 138 -44zM999 1065v-172l787 131v172zM1884 1253v-983
q0 -102 -86 -174t-209 -72t-209 72t-86 174t86 174t204 72t202 -63v522l-787 -131v-721q0 -102 -86 -174q-87 -72 -209 -72t-208 72t-86 174t86 174t204 72t201 -64v801q0 43 41 49l885 148q23 3 40 -11t17 -39z" />
    <glyph glyph-name="uniE517" unicode="&#xe517;" horiz-adv-x="2097" 
d="M1221 172h245q25 0 25 -25t-25 -24h-245q-25 1 -25 25t25 24zM1221 442v-98h221v98h-221zM1171 442h-516v-98h516v98zM1221 492h221v98h-221v-98zM1171 492v98h-516v-98h516zM1221 639h221v98h-221v-98zM1171 737h-516v-98h516v98zM631 786h835q25 0 25 -24v-443
q0 -25 -25 -24h-835q-25 0 -25 24v443q0 24 25 24zM877 1008h-246q-25 0 -25 24t25 25h246q25 0 24 -25q1 -24 -24 -24zM1319 958h250l-250 252v-252zM1589 909h-295q-25 0 -24 25v295h-762v-1229h1081v909zM1688 -49q0 -21 -14 -35t-36 -14h-1179q-20 0 -35 14
q-14 14 -14 35v1327q0 20 14 34t35 15h862q17 0 35 -14l317 -322q14 -12 15 -33v-1007z" />
    <glyph glyph-name="uniE518" unicode="&#xe518;" horiz-adv-x="2097" 
d="M508 -82h1081v1081h-1081v-1081zM877 1343v-245h344v245q0 83 -48 147t-124 87q-76 -23 -124 -87t-48 -147zM1368 1098v245q0 96 -66 167q-67 71 -163 79q131 -88 131 -246v-245h98zM827 1098v245q0 158 131 246q-96 -8 -162 -79t-67 -167v-245h98zM1417 1098h221
q20 0 34 -14t16 -35v-1180q0 -21 -14 -35t-36 -14h-1179q-20 0 -35 14q-14 14 -14 35v1180q0 20 14 34t35 15h221v245q0 123 86 209t209 86q33 0 74 -10q41 10 73 10q123 0 209 -86t86 -209v-245z" />
    <glyph glyph-name="uniE519" unicode="&#xe519;" horiz-adv-x="1900" 
d="M951 25q29 0 51 -22q22 -23 22 -53t-22 -52t-52 -21q-30 0 -52 22q-22 23 -22 53t23 52q22 22 52 21zM852 1352h199q23 0 23 -25t-23 -24h-199q-25 1 -25 25t25 24zM1393 -172v1573q-1 21 -15 35t-35 14h-786q-21 0 -35 -14t-14 -35v-1573q0 -20 14 -34t35 -15h786
q20 1 35 15t15 34zM1491 1401v-1573q0 -61 -43 -104t-105 -43h-786q-61 0 -104 43t-43 104v1573q0 61 43 104t104 43h786q61 0 105 -43t43 -104z" />
    <glyph glyph-name="uniE520" unicode="&#xe520;" horiz-adv-x="1900" 
d="M950 -123q30 0 52 22q22 23 22 53t-22 52t-52 21q-30 0 -52 -22q-22 -23 -22 -53t22 -52q21 -22 52 -21zM852 1303h199q23 1 23 25t-23 24h-199q-25 0 -25 -24t25 -25zM557 1548h786q61 0 105 -43t43 -104v-1573q0 -59 -43 -103t-105 -44h-786q-61 0 -104 44t-43 103
v1573q0 61 43 104t104 43z" />
    <glyph glyph-name="uniE521" unicode="&#xe521;" horiz-adv-x="2232" 
d="M657 1262q-16 -8 -22 -28t4 -38t31 -23t38 4t22 29t-5 37q-25 43 -68 19zM633 1305q35 20 74 9t60 -45t10 -74t-46 -60q-35 -21 -74 -11t-59 45t-10 75t45 61zM1810 168l-604 1046q-45 80 -141 107l-315 88q-88 25 -166 -19t-97 -133l-77 -315q-20 -82 30 -170l604 -1046
zM778 1505l316 -90q133 -41 196 -151l629 -1090q10 -18 2 -38t-27 -34l-852 -491q-33 -18 -59 22l-629 1090q-70 121 -39 244l74 313q33 131 148 195q110 67 241 30z" />
    <glyph glyph-name="uniE522" unicode="&#xe522;" horiz-adv-x="2631" 
d="M1423 -178q62 36 62 121q-4 45 -49 84q-35 25 -74 24h-14q-49 -4 -84 -49q-14 -16 -24 -54t15 -81q37 -61 107 -62q33 0 61 17zM1225 559l209 -362l639 368l-209 363zM1499 1090q-24 0 -24 27q0 7 12 20l86 49q23 10 33 -10q4 -4 4 -16t-13 -17l-86 -49q-4 -4 -12 -4z
M1839 971l-209 360l-639 -368l209 -361zM1364 -293q-60 0 -112 30t-81 81q-47 80 -22 168q14 59 63 104l-616 1063h-240q-20 0 -34 14q-14 15 -14 35t14 34t34 15h269q31 0 43 -22l628 -1090q14 6 52 11l-465 806q-10 18 -4 39t20 29l725 418q43 23 68 -19l491 -852
q21 -38 -18 -65l-680 -393q23 -16 39 -35l665 385q41 22 68 -19q23 -41 -19 -67l-665 -383q20 -63 2 -123q-23 -88 -102 -133q-49 -31 -109 -31z" />
    <glyph glyph-name="uniE523" unicode="&#xe523;" horiz-adv-x="1763" 
d="M799 -163q0 27 18 45t44 18t44 -18q19 -18 19 -45q0 -26 -18 -44t-45 -18q-26 0 -44 18t-18 44zM915 66q0 -23 -16 -39q-16 -17 -39 -17t-39 16t-16 40v112q0 154 121 277q35 35 103 90t96 81q94 87 111 164q11 48 5 107q-14 147 -139 231q-152 102 -331 52t-255 -252
q-8 -20 -28 -30t-40 -3q-22 9 -32 29t-2 43q45 123 129 205t192 112q233 68 430 -63q164 -111 187 -312q17 -181 -99 -308q-60 -67 -140 -131q-79 -64 -109 -95q-88 -88 -89 -197v-112z" />
    <glyph glyph-name="uniE524" unicode="&#xe524;" horiz-adv-x="2486" 
d="M1855 84q63 0 108 45q44 45 44 107t-44 107q-43 44 -107 44t-108 -44t-44 -106q0 -61 44 -107t107 -46zM922 442h98q24 0 24 -24t-24 -25h-98q-25 1 -25 25t25 24zM627 442h98q25 0 25 -24t-25 -25h-98q-25 1 -25 25t25 24zM332 442h98q25 0 25 -24t-25 -25h-98
q-25 1 -25 25t25 24zM1540 518q18 0 32 13q13 13 13 33t-13 32q-14 14 -32 14t-32 -13t-13 -33q0 -20 13 -33q14 -13 32 -13zM1855 1044q-63 0 -107 -45t-44 -107t44 -106t107 -45q63 0 108 44q44 45 44 107t-44 107q-45 45 -108 45zM1792 680q-98 -37 -111 -109v-14
q7 -33 27 -54t68 -48q8 -2 16 -6q34 10 62 10q28 -1 75 -15t74 -43q74 -67 74 -161t-66 -160t-157 -66q-90 0 -156 65t-66 157q0 47 21 94q-6 46 -41 74t-68 34l-31 6l-92 -53h-256v2l250 170l-567 389q35 -6 95 -19q61 -13 235 -82t335 -167q10 0 39 9q86 26 101 106
q-20 47 -21 94q0 90 66 156q66 65 156 65t157 -66q66 -66 66 -156q0 -91 -66 -157t-156 -65q-29 0 -63 10z" />
    <glyph glyph-name="uniE525" unicode="&#xe525;" horiz-adv-x="2252" 
d="M1786 172h-92q-47 0 -52 39q-20 283 -238 498t-505 237q-19 2 -33 16t-14 33v258h-344v-1228h1278v147zM1841 270q19 0 31 -19t12 -42v-246q0 -37 -43 -37h-1376q-55 0 -55 37v1327q0 20 17 40t38 22h442q19 0 31 -20t12 -42v-250q119 -14 238 -67l33 69l-35 15
q-20 10 -12 33q12 25 32 14l58 -23l55 -26q25 -12 12 -35q-6 -14 -17 -14t-16 2l-32 14l-31 -70q109 -55 192 -129l56 62l-27 24q-18 17 -1 35t36 0l90 -82q16 -18 5 -30t-20 -13q-9 0 -20 6l-26 25l-56 -59q86 -82 146 -179l67 41l-18 31q-10 20 10 34t33 -9l61 -105
q10 -20 -1 -28t-23 -9q-12 0 -19 13l-18 32l-68 -34q82 -146 105 -308h102z" />
    <glyph glyph-name="uniE526" unicode="&#xe526;" horiz-adv-x="2392" 
d="M1343 444q21 0 35 -14t15 -35v-370h491v903l-696 332l-680 -332v-903h491v370q1 21 15 35t35 14h294zM1343 -74q-20 0 -34 14t-15 35v371h-196v-371q0 -20 -14 -34t-35 -15h-590q-16 0 -35 15q-14 18 -14 34v983q0 33 28 46l727 354q23 10 43 0l746 -354q29 -12 28 -46
v-983q0 -20 -14 -34t-35 -15h-590z" />
    <glyph glyph-name="uniE527" unicode="&#xe527;" horiz-adv-x="2588" 
d="M1122 98h910q20 0 34 12t15 31v375h-959v-418zM508 516v-375q0 -18 14 -30t35 -13h467v418h-516zM1278 786q-29 0 -49 -16q-28 -16 -53 -82q96 6 126 26t30 32q1 14 -12 27t-42 13zM864 786q-28 0 -45 -18q-9 -12 -7 -24t32 -30q30 -20 125 -26q-25 63 -54 84
q-23 14 -51 14zM1122 797q49 88 163 88q65 0 109 -47q44 -46 36 -104q-12 -84 -113 -120h764v373q-1 17 -15 31t-34 14h-910v-235zM868 885q101 0 156 -88v235h-467q-21 0 -35 -13t-14 -32v-373h319q-97 31 -111 119q-9 57 35 105t117 47zM557 1130h1475q59 0 103 -43
t44 -100v-846q0 -57 -44 -99t-103 -42h-1475q-61 0 -104 41t-43 100v846q0 59 43 101t104 42z" />
    <glyph glyph-name="uniE528" unicode="&#xe528;" horiz-adv-x="2506" 
d="M1647 750q35 0 61 -25t25 -61q0 -36 -26 -61q-27 -25 -61 -25t-60 26t-26 61q0 37 26 61t61 24zM1253 750q35 0 61 -25t26 -61t-26 -61t-61 -25t-61 26t-25 61q-1 37 25 61t61 24zM860 750q35 0 61 -25q25 -25 25 -61t-26 -61t-60 -25t-60 26t-26 61q0 37 26 61t60 24z
M1253 25q319 0 553 189q233 189 234 450q0 219 -178 397q-113 115 -273 178t-336 64q-319 1 -551 -189t-234 -442q-1 -252 179 -414q27 -23 12 -57l-114 -256l291 172q23 10 43 2q235 -94 374 -94zM2138 664q0 -298 -262 -518t-621 -220q-158 0 -391 92l-307 -180
q-15 -10 -45 -10t-54 26q-26 26 -26 51t6 42v2q2 2 2 4l115 256q-186 190 -186 455q2 299 264 518t620 219q195 0 373 -71t305 -200q207 -207 207 -466z" />
    <glyph glyph-name="uniE529" unicode="&#xe529;" horiz-adv-x="2883" 
d="M1343 367q82 0 140 57q57 57 57 139t-57 139q-57 58 -139 58t-140 -58q-57 -58 -57 -139q0 -82 57 -139t139 -57zM1343 809q103 0 175 -73t72 -173t-72 -173t-174 -73t-175 73q-72 73 -71 173q0 100 71 173q72 73 174 73zM2130 612q-140 0 -240 96t-104 236
q-225 0 -451 45q-233 41 -417 41t-410 -35v-845q394 73 844 -11q224 -43 412 -43t415 35v485q-33 -4 -49 -4zM2154 981h99q25 0 24 -25q0 -25 -24 -24h-99v-98q0 -25 -24 -25t-25 25v98h-98q-25 0 -25 24t25 25h98v98q0 25 25 25t24 -25v-98zM2130 711q102 1 174 73t72 172
t-72 173t-174 73t-174 -73t-72 -173t72 -172t174 -73zM2474 956q0 -100 -54 -183t-143 -126v-557q0 -41 -41 -47q-227 -45 -450 -45t-451 45q-229 41 -434 41t-434 -41q-23 -6 -39 10q-18 12 -18 37v946q0 43 41 49q233 43 450 43t447 -43t438 -43h12q29 113 121 186
q92 72 223 72t232 -100q100 -101 100 -244z" />
    <glyph glyph-name="uniE530" unicode="&#xe530;" horiz-adv-x="2686" 
d="M1417 160h-737q-25 0 -25 24t25 25h737q25 -1 25 -25t-25 -24zM1556 137q-20 0 -27 19q-7 18 19 30t80 72l33 35q13 10 27 4t14 -29t-2 -32l16 6l23 10q12 8 29 -1t18 -36v-2q0 13 22 9q22 -3 31 -13q21 -20 166 -8q27 0 27 -23q4 -27 -23 -26q-168 -14 -207 20
q-9 -9 -33 -14q-40 0 -40 37q-84 -44 -84 10q-69 -68 -89 -68zM2007 356h-1327q-25 0 -25 25t25 25h1327q25 0 25 -25t-25 -25zM2179 848h-1671v-885h1671v885zM2277 897v-983q0 -20 -14 -34t-35 -15h-1769q-20 0 -35 14q-14 14 -14 35v983q0 21 14 35t35 14h1769
q20 0 35 -14q14 -15 14 -35zM1294 1094q-25 0 -24 24q0 162 151 278q152 116 365 115q25 0 24 -24q0 -9 -8 -17t-16 -8q-195 0 -331 -100t-136 -244q-1 -8 -9 -16t-16 -8zM1851 1505l-174 174q-18 16 0 35q18 14 35 0l176 -174q20 -22 20 -52t-20 -52l-176 -174
q-14 -14 -35 0q-18 16 0 34l174 174q20 17 0 35z" />
    <glyph glyph-name="uniE531" unicode="&#xe531;" horiz-adv-x="2293" 
d="M1786 66v368q0 96 -62 158t-159 63q-29 0 -56 -6q55 -98 56 -213v-370h221zM508 66h221v370q0 117 57 213q-29 6 -57 6q-97 0 -159 -62t-62 -159v-368zM1466 -82v518q0 153 -108 244q-86 74 -210 74t-210 -74q-36 -24 -64 -74q-47 -76 -47 -170v-518h639zM1565 1196v-25
q0 -100 -46 -189t-124 -146q66 -82 164 -82q99 0 163 64t64 157t-64 157t-157 64zM729 1196q-90 0 -156 -64q-65 -64 -65 -157q0 -92 66 -157q66 -64 163 -64q98 0 164 82q-172 125 -172 335v25zM827 1171q0 -147 117 -247q162 -111 318 -50q58 21 88 50q117 96 116 247v3
q0 58 -16 98q-33 96 -116 158t-187 61q-104 0 -188 -61q-82 -62 -115 -158q-15 -51 -17 -98v-3zM1884 434v-418q0 -20 -14 -34t-35 -15h-270v-98q-1 -21 -15 -35t-34 -14h-738q-20 0 -35 14q-14 14 -14 35v98h-270q-21 1 -35 15t-14 34v418q0 182 147 273q-147 96 -147 268
q0 131 94 225t225 94h19q41 129 150 212q110 83 249 83t250 -83t149 -212h19q131 0 225 -94t94 -225q0 -172 -147 -268q147 -90 147 -273z" />
    <glyph glyph-name="uniE532" unicode="&#xe532;" horiz-adv-x="2021" 
d="M926 -123q12 0 12 12l55 344q8 41 39 68t72 27h41q391 0 461 360q29 137 -15 223q-7 -35 -16 -55q-86 -266 -348 -340q-92 -29 -223 -29h-148q-49 0 -57 -53q0 -12 -41 -273t-47 -284h215zM856 586h148q379 0 477 301q80 246 -29 358q-94 106 -346 107h-469
q-18 0 -23 -19l-208 -1323h227q10 59 27 174t30 188q12 73 12 77q10 63 52 100t102 37zM698 -221q-37 0 -67 31q-25 31 -19 67l4 35h-217q-43 0 -71 33q-27 33 -21 73l209 1330q8 46 42 74t79 28h469q293 0 420 -137q98 -111 86 -275q139 -115 90 -368q-84 -440 -557 -441
h-41q-12 0 -12 -12l-56 -344q-6 -41 -38 -68t-72 -26h-228z" />
    <glyph glyph-name="uniE533" unicode="&#xe533;" horiz-adv-x="2033" 
d="M874 457q0 93 109 125v61h55v-61q37 -6 62 -25q23 -20 45 -57l-62 -35q-33 51 -67 51t-53 -16q-19 -18 -19 -40t12 -36t62 -39q64 -23 102 -61q35 -42 35 -96t-31 -93t-86 -55v-66h-55v64q-61 8 -94 41t-49 102l69 15q15 -52 35 -70t56 -18t59 22q25 20 25 52t-13 46
q-12 14 -37 31l-49 25q-63 30 -87 58t-24 75zM1144 717q-9 0 -16 8q-94 121 -124 209q-37 -6 -86 -2q0 -74 16 -156q4 -23 -19 -26h-4q-23 0 -24 18q-18 98 -15 172q-35 8 -67 29l-19 10q-140 -53 -204 -206t-105 -411l-6 -40q-37 -227 86 -373q72 -86 194 -134
q121 -48 273 -48q152 1 280 59q194 88 256 286q40 137 -44 320q-31 68 -64 164t-57 164q-24 67 -63 107q-82 84 -173 108q-59 -23 -108 -33q25 -70 114 -188q14 -18 -4 -33q-8 -4 -17 -4zM1096 1428q-27 -46 -53 -46t-60 17q-4 -12 -6 -39q-12 -74 -62 -74q-31 0 -73 44
t-51 52q-16 -57 49 -215q29 -4 107 -24t140 -10q12 0 19 2q10 18 16 34q126 299 21 304q-20 0 -47 -45zM1025 -328q-173 0 -313 58t-227 157q-152 184 -106 449l6 43q47 306 125 455t205 215q-18 45 -2 75t49 41q-100 251 2 289q16 4 20 4q37 0 103 -65q4 -6 16 -19
q6 35 10 52q5 16 19 34t34 18t60 -18h4q2 2 6 10q40 76 104 76t97 -47q63 -98 -45 -358q-2 -2 -2 -4q58 -2 78 -25t15 -40q-5 -16 -11 -26t-6 -12q78 -38 132 -104t77 -120t62 -170t62 -169q70 -156 65 -281q-5 -126 -84 -250q-78 -124 -230 -196t-325 -72z" />
    <glyph glyph-name="uniE534" unicode="&#xe534;" horiz-adv-x="1998" 
d="M913 39h148q25 0 24 -25q0 -25 -24 -24h-148q-25 0 -24 24q-1 25 24 25zM1282 63v99q0 25 -25 24h-49q-25 0 -24 -24v-99q0 -25 24 -24h49q25 -1 25 24zM963 137h49q25 0 24 25q0 25 -24 24h-49q-25 0 -25 -24t25 -25zM791 63v99q0 25 -25 24h-49q-25 0 -25 -24v-99
q0 -25 25 -24h49q25 -1 25 24zM1208 236h49q29 0 52 -22t22 -52v-99q-1 -31 -23 -53t-51 -20h-49q-30 0 -52 22t-21 51v99q0 30 21 52t52 22zM963 236h49q30 0 52 -22t22 -52t-24 -52q-22 -22 -50 -22h-49q-31 0 -53 22t-22 52t22 52t53 22zM717 236h49q30 0 52 -22t22 -52
v-99q0 -31 -23 -53t-51 -20h-49q-31 0 -53 22t-21 51v99q-1 30 21 52t53 22zM1208 334h49q25 0 25 24t-25 25h-49q-25 0 -24 -25q-1 -24 24 -24zM963 334h49q24 0 24 24t-24 25h-49q-25 -1 -25 -25t25 -24zM717 334h49q25 0 25 24t-25 25h-49q-25 -1 -25 -25t25 -24z
M1208 432h49q29 0 52 -22t23 -52t-24 -52q-22 -22 -51 -21h-49q-30 -1 -52 21t-22 52t22 52q21 22 52 22zM963 432h49q30 0 52 -22t22 -52t-24 -52q-22 -22 -50 -21h-49q-31 -1 -53 21t-22 52t22 53q22 21 53 21zM717 432h49q30 0 52 -22t22 -52t-23 -52t-51 -21h-49
q-31 -1 -53 21t-21 52q-1 30 21 52t53 22zM1208 530h49q25 0 25 25t-25 25h-49q-25 0 -25 -25t25 -25zM963 530h49q25 0 24 25q0 25 -24 25h-49q-25 0 -25 -25t25 -25zM717 530h49q25 0 25 25t-25 25h-49q-25 0 -25 -25t25 -25zM1208 629h49q29 0 52 -22q23 -23 23 -53
t-24 -52q-22 -22 -51 -21h-49q-30 0 -52 22q-22 23 -22 53t22 52q21 22 52 21zM963 629h49q30 0 52 -22q22 -23 22 -53t-24 -52q-22 -22 -50 -21h-49q-31 0 -53 22q-22 23 -22 53t22 52t53 21zM717 629h49q30 0 52 -22q22 -23 22 -53t-23 -52t-51 -21h-49q-31 0 -53 22
q-22 23 -21 53q-1 30 21 52t53 21zM741 825h492v246h-492v-246zM1260 776h-547q-20 0 -21 25v295q0 25 21 24h547q23 0 22 -24v-295q1 -25 -22 -25zM1491 -109v1426q0 21 -14 35t-35 14h-49v-74q0 -24 -25 -24t-25 24v74h-196v-74q0 -25 -25 -24q-25 0 -24 24v74h-197v-74
q0 -25 -24 -24q-25 0 -25 24v74h-197v-74q0 -25 -24 -24q-25 0 -25 24v74h-49q-21 0 -35 -14t-14 -35v-1426q0 -20 14 -34t35 -15h885q20 0 34 14t15 35zM553 1464h893q59 0 101 -43t42 -104v-1426q0 -61 -42 -104t-101 -43h-893q-59 0 -101 43t-42 104v1426q0 61 42 104
t101 43z" />
    <glyph glyph-name="uniE535" unicode="&#xe535;" horiz-adv-x="2732" 
d="M1997 -4h-2l-4 2l-99 86q-8 8 -8 18t6 17q16 20 35 4l57 -51v217q0 25 25 25t25 -25v-217l57 51q18 16 35 -4q6 -7 6 -17t-8 -18l-99 -86q-6 0 -6 -4l-10 -2l-10 2v2zM2014 -106q99 0 175 76t76 188q0 111 -86 186q-79 66 -171 67q-93 1 -165 -59t-90 -149q-4 -33 -4 -51
q0 -122 94 -199q72 -59 171 -59zM1565 498q25 0 24 -25v-98q-1 -25 -25 -25t-24 25v98q0 25 25 25zM1466 498q25 0 25 -25v-98q0 -25 -25 -25t-24 25v98q-1 25 24 25zM1319 498q25 0 24 -25v-98q-1 -25 -25 -25t-24 25v98q0 25 25 25zM1221 498q25 0 24 -25v-98
q-1 -25 -25 -25t-24 25v98q0 25 25 25zM1122 498q25 0 25 -25v-98q0 -25 -25 -25t-24 25v98q-1 25 24 25zM1024 498q25 0 25 -25v-98q0 -25 -25 -25t-25 25v98q0 25 25 25zM877 498q25 0 24 -25v-98q-1 -25 -25 -25t-24 25v98q0 25 25 25zM778 498q25 0 25 -25v-98
q0 -25 -25 -25t-24 25v98q-1 25 24 25zM680 498q25 0 25 -25v-98q0 -25 -25 -25t-25 25v98q0 25 25 25zM680 694h983q25 0 25 -24t-25 -25h-983q-25 1 -25 25t25 24zM1466 793h-786q-25 1 -25 25t25 24h786q25 0 25 -24t-25 -25zM1786 842h274l-274 274v-274zM508 203h1147
q19 131 119 219t233 88q25 0 74 -8v291h-320q-25 0 -24 24v320h-1229v-934zM2179 842v-377q84 -47 134 -130t50 -181q0 -146 -104 -252q-105 -106 -245 -106t-240 88q-100 89 -119 220h-1196q-21 0 -35 14t-14 36v1032q0 20 14 34t35 15h1327q18 0 35 -16l344 -345
q14 -14 14 -32z" />
    <glyph glyph-name="uniE536" unicode="&#xe536;" horiz-adv-x="2732" 
d="M2032 176h86q24 0 24 -24t-24 -25h-86v-86q0 -25 -25 -25t-25 25v86h-86q-25 0 -24 25q0 25 24 24h86v86q0 25 25 25t25 -25v-86zM2014 -106q99 0 175 76t76 187q0 112 -80 181t-175 71q-95 1 -167 -59t-90 -149q-4 -33 -4 -49t4 -50q18 -90 90 -149t171 -59zM1565 496
q25 0 24 -25v-98q-1 -25 -25 -25t-24 25v98q0 25 25 25zM1466 496q25 0 25 -25v-98q0 -25 -25 -25t-24 25v98q-1 25 24 25zM1319 496q25 0 24 -25v-98q-1 -25 -25 -25t-24 25v98q0 25 25 25zM1221 496q25 0 24 -25v-98q-1 -25 -25 -25t-24 25v98q0 25 25 25zM1122 496
q25 0 25 -25v-98q0 -25 -25 -25t-24 25v98q-1 25 24 25zM1024 496q25 0 25 -25v-98q0 -25 -25 -25t-25 25v98q0 25 25 25zM877 496q25 0 24 -25v-98q-1 -25 -25 -25t-24 25v98q0 25 25 25zM778 496q25 0 25 -25v-98q0 -25 -25 -25t-24 25v98q-1 25 24 25zM680 496
q25 0 25 -25v-98q0 -25 -25 -25t-25 25v98q0 25 25 25zM680 692h983q25 0 25 -24t-25 -25h-983q-25 1 -25 25t25 24zM1466 791h-786q-25 1 -25 25t25 24h786q25 0 25 -24t-25 -25zM1786 840h274l-274 274v-274zM508 201h1147q17 131 117 219t235 88q41 0 74 -8v291h-320
q-25 0 -24 24v320h-1229v-934zM2179 840v-377q84 -45 134 -129t50 -182q0 -148 -104 -252q-103 -104 -245 -104t-241 87q-99 88 -118 219h-1196q-21 0 -35 14t-14 36v1032q0 20 14 34t35 15h1327q16 0 35 -14l344 -345q14 -18 14 -34z" />
    <glyph glyph-name="uniE537" unicode="&#xe537;" horiz-adv-x="2482" 
d="M1833 41q0 -87 -88 -113v-49h-41v49q-45 6 -70 31t-37 76l52 10q14 -39 29 -52t41 -13t43 17q37 37 3 81l-22 14q-20 12 -51 26t-45 32q-23 24 -23 58t21 62q14 14 24 21q29 10 35 12v47h41v-47q52 -7 80 -61l-45 -25q-24 37 -50 37t-40 -13t-14 -31t12 -26q6 -8 57 -32
t61 -41q27 -27 27 -70zM1711 -240q145 0 249 104t104 250t-103 250t-249 103q-146 0 -250 -103q-104 -104 -104 -250t104 -250t249 -104zM1253 1141v-488q0 -76 -16 -90q-248 -223 -250 -225q-39 -27 -67 10t8 68q12 12 119 108q108 96 108 101v516q0 47 49 47t49 -47z
M1180 -88q92 0 172 20q-43 90 -43 183q-1 165 117 283t286 118q90 0 164 -37q16 76 16 144q0 295 -209 503t-503 209q-294 0 -504 -209q-209 -208 -209 -502t209 -503t504 -209zM1705 -289q-173 0 -294 135q-111 -33 -231 -32q-336 0 -574 238t-238 572t238 572t574 238
t574 -238t237 -573q0 -88 -25 -197q148 -121 148 -300t-118 -297t-291 -118z" />
    <glyph glyph-name="uniE538" unicode="&#xe538;" horiz-adv-x="2662" 
d="M1835 -197q31 0 53 22q22 23 21 53q0 30 -22 52q-23 22 -53 21q-30 0 -52 -22q-22 -23 -21 -53q-1 -30 21 -52t53 -21zM1196 -197q30 0 52 22q22 23 22 53t-22 52t-52 21q-30 0 -52 -22q-22 -23 -22 -53t22 -52t52 -21zM1835 0q51 0 87 -36t36 -87t-36 -87t-87 -36
t-87 36t-36 87t36 87t87 36zM1196 0q51 0 87 -36t36 -87t-36 -87t-87 -36t-87 36t-36 87t36 87t87 36zM1171 590q0 -25 -24 -25h-270q-25 0 -25 25t25 24h270q24 1 24 -24zM1122 836q0 -25 -24 -25h-418q-25 0 -25 25t25 24h418q24 1 24 -24zM2138 1057h-864l108 -467h613z
M1073 1057q0 -25 -24 -25h-615q-25 0 -24 25q0 25 24 24h615q24 1 24 -24zM1835 123q21 0 35 -14q14 -15 14 -35t-14 -34t-35 -15h-639q-25 0 -39 19t-8 44l143 455l-159 686h-256q-20 0 -35 14q-14 15 -14 35t14 34t35 15h294q41 0 48 -39l32 -133h953q25 0 39 -19t8 -44
l-172 -566q-10 -35 -47 -34h-652l-116 -369h571z" />
    <glyph glyph-name="uniE539" unicode="&#xe539;" horiz-adv-x="2637" 
d="M1491 2q61 0 104 43t43 105t-43 104q-43 43 -104 43t-105 -43t-43 -104q0 -61 43 -105q44 -43 105 -43zM1491 346q82 0 139 -57q58 -57 58 -139t-58 -140t-139 -57q-82 0 -139 57q-58 58 -58 140t58 139t139 57zM1872 444q-161 0 -350 21h-4q-283 29 -423 29t-239 -19
l-29 -6v-639q97 25 247 25t414 -25t381 -25q116 0 224 19l37 6v639q-98 -25 -258 -25zM508 813q0 -135 59 -253t162 -195v104q0 33 22 61t73 38q52 10 141 18q-1 2 -7 5q-82 44 -81 99q0 221 -99 221q-133 0 -164 232q-106 -146 -106 -330zM1638 813q0 227 -155 389
q-53 -8 -97 -40t-43 -79q0 -21 19 -93q34 -129 -68 -128q-18 0 -77 19q-76 31 -98 15q-21 -16 -21 -68q0 -50 24 -70t122 -8q99 14 124 14q141 0 168 -201q29 -4 41 -4q61 119 61 254zM1073 1378q-248 0 -414 -182q14 -236 119 -235q147 0 148 -271q0 -24 47 -52t61 -48
q26 2 110 2t343 -25q-23 147 -119 148q-20 0 -78 -8q-160 -23 -201 13t-41 110q1 161 185 98q73 -26 83 -12q11 14 -5 84t-17 83q0 57 42 99t104 61q-158 135 -367 135zM2228 469v-639q0 -34 -22 -62t-58 -34q-17 -8 -125 -18q-108 -9 -187 -9t-345 25q-458 43 -610 8
l-29 -6q-8 -2 -32 -2t-54 20q-37 31 -37 78v416q-145 90 -232 240t-87 327q0 274 194 469q195 195 469 195t469 -195t195 -469q0 -133 -56 -264q86 -6 205 -6t191 16l28 6q7 2 31 2t55 -20q37 -31 37 -78z" />
  </font>
</defs>
</svg>
