<?xml version="1.0" standalone="no"?><!DOCTYPE svg PUBLIC "-//W3C//DTD SVG 1.1//EN" "http://www.w3.org/Graphics/SVG/1.1/DTD/svg11.dtd" ><svg version="1.1" xmlns="http://www.w3.org/2000/svg"><defs><font horiz-adv-x="0" id="font"><font-face ascent="1132" bbox="-59 -244 1160 983" cap-height="770" descent="-268" font-family="PayPal Sans Big Thin" font-stretch="normal" font-style="normal" font-weight="200" units-per-em="1024" x-height="560" /><missing-glyph horiz-adv-x="258" /><glyph d="M480 313 329 679 179 313ZM629 0H609L487 297H173L51 0H31L319 701H340Z" glyph-name="A" horiz-adv-x="660" unicode="A" /><glyph d="M283 313H559V686ZM971 0H559V297H271L52 0H31L547 700H958V683H578V372H918V355H578V17H971Z" glyph-name="AE" horiz-adv-x="1046" unicode="&#198;" /><glyph d="M283 313H559V686ZM971 0H559V297H271L52 0H31L547 700H958V683H578V372H918V355H578V17H971ZM912 927 747 776H726L882 927Z" glyph-name="AEacute" horiz-adv-x="1046" unicode="&#508;" /><glyph d="M480 313 329 679 179 313ZM629 0H609L487 297H173L51 0H31L319 701H340ZM499 927 334 776H313L469 927Z" glyph-name="Aacute" horiz-adv-x="660" unicode="&#193;" /><glyph d="M480 313 329 679 179 313ZM629 0H609L487 297H173L51 0H31L319 701H340ZM329 776Q262 776 222 817.5Q182 859 182 927H196Q199 863 234 828Q269 793 329 793Q390 793 425 828Q460 863 462 927H477Q477 858 436.5 817Q396 776 329 776Z" glyph-name="Abreve" horiz-adv-x="660" unicode="&#258;" /><glyph d="M480 313 329 679 179 313ZM629 0H609L487 297H173L51 0H31L319 701H340ZM185 776 319 927H339L473 776H456L329 909L203 776Z" glyph-name="Acircumflex" horiz-adv-x="660" unicode="&#194;" /><glyph d="M480 313 329 679 179 313ZM629 0H609L487 297H173L51 0H31L319 701H340ZM404 809Q394 809 386.5 816.5Q379 824 379 834Q379 845 386 852.5Q393 860 404 860Q415 860 422 852.5Q429 845 429 834Q429 824 422 816.5Q415 809 404 809ZM255 809Q245 809 237.5 816.5Q230 824 230 834Q230 845 237 852.5Q244 860 255 860Q265 860 272 852.5Q279 845 279 834Q279 824 272 816.5Q265 809 255 809Z" glyph-name="Adieresis" horiz-adv-x="660" unicode="&#196;" /><glyph d="M480 313 329 679 179 313ZM629 0H609L487 297H173L51 0H31L319 701H340ZM189 927 345 776H324L159 927Z" glyph-name="Agrave" horiz-adv-x="660" unicode="&#192;" /><glyph d="M480 313 329 679 179 313ZM629 0H609L487 297H173L51 0H31L319 701H340ZM481 818V802H178V818Z" glyph-name="Amacron" horiz-adv-x="660" unicode="&#256;" /><glyph d="M629 -219V-233Q622 -236 615 -237.5Q608 -239 600 -239Q566 -239 545 -217.5Q524 -196 524 -159Q524 -124 543 -87.5Q562 -51 609 0L487 297H173L51 0H31L319 700H340L629 0Q580 -55 561.5 -90Q543 -125 543 -159Q543 -189 558.5 -206Q574 -223 600 -223Q609 -223 616 -222Q623 -221 629 -219ZM480 313 329 678 179 313Z" glyph-name="Aogonek" horiz-adv-x="660" unicode="&#260;" /><glyph d="M421 784Q421 746 394 719Q372 697 343 693L629 0H609L487 297H173L51 0H31L315 693Q286 697 264 719Q237 746 237 784Q237 822 264 848.5Q291 875 329 875Q367 875 394 848Q421 821 421 784ZM480 313 329 679 184 319ZM255 784Q255 752 276.5 730Q298 708 329 708Q360 708 382 730.5Q404 753 404 784Q404 815 382 837Q360 859 329 859Q298 859 276.5 837Q255 815 255 784Z" glyph-name="Aring" horiz-adv-x="660" unicode="&#197;" /><glyph d="M480 313 329 679 179 313ZM629 0H609L487 297H173L51 0H31L319 701H340ZM406 776Q390 776 372.5 791Q355 806 322 853Q293 895 278.5 908Q264 921 252 921Q226 921 210.5 889Q195 857 185 776H169Q178 860 198 899Q218 938 253 938Q269 938 286 923Q303 908 336 861Q365 819 380 806Q395 793 407 793Q433 793 448 824.5Q463 856 473 938H490Q481 855 460.5 815.5Q440 776 406 776Z" glyph-name="Atilde" horiz-adv-x="660" unicode="&#195;" /><glyph d="M507 529Q507 467 467.5 423.5Q428 380 360 365Q450 358 503.5 310.5Q557 263 557 186Q557 97 491.5 48.5Q426 0 306 0H113V700H270Q381 700 444 654.5Q507 609 507 529ZM268 683H132V370H275Q377 370 432.5 411.5Q488 453 488 529Q488 603 430.5 643Q373 683 268 683ZM538 185Q538 268 478.5 311Q419 354 306 354H132V17H306Q419 17 478.5 60Q538 103 538 185Z" glyph-name="B" horiz-adv-x="613" unicode="B" /><glyph d="M414 693Q268 693 170 598Q72 503 72 351Q72 198 170 102.5Q268 7 414 7Q448 7 477.5 12Q507 17 537 28V9Q510 -1 479 -6Q448 -11 414 -11Q260 -11 156 90.5Q52 192 52 351Q52 509 156 610Q260 711 414 711Q448 711 479 706Q510 701 537 691V671Q508 682 478.5 687.5Q449 693 414 693Z" glyph-name="C" horiz-adv-x="576" unicode="C" /><glyph d="M414 693Q268 693 170 598Q72 503 72 351Q72 198 170 102.5Q268 7 414 7Q448 7 477.5 12Q507 17 537 28V9Q510 -1 479 -6Q448 -11 414 -11Q260 -11 156 90.5Q52 192 52 351Q52 509 156 610Q260 711 414 711Q448 711 479 706Q510 701 537 691V671Q508 682 478.5 687.5Q449 693 414 693ZM565 927 400 776H379L535 927Z" glyph-name="Cacute" horiz-adv-x="576" unicode="&#262;" /><glyph d="M414 693Q268 693 170 598Q72 503 72 351Q72 198 170 102.5Q268 7 414 7Q448 7 477.5 12Q507 17 537 28V9Q510 -1 479 -6Q448 -11 414 -11Q260 -11 156 90.5Q52 192 52 351Q52 509 156 610Q260 711 414 711Q448 711 479 706Q510 701 537 691V671Q508 682 478.5 687.5Q449 693 414 693ZM539 927 405 776H385L251 927H269L395 794L522 927Z" glyph-name="Ccaron" horiz-adv-x="576" unicode="&#268;" /><glyph d="M460 -145Q460 -186 424.5 -212.5Q389 -239 339 -239Q309 -239 284 -233Q259 -227 239 -215V-194Q262 -209 284 -215.5Q306 -222 339 -222Q382 -222 411.5 -201Q441 -180 441 -145Q441 -113 411.5 -95Q382 -77 331 -77L352 -6Q238 10 156 90Q52 192 52 351Q52 509 156 610Q260 711 414 711Q448 711 479 706Q510 701 537 691V671Q508 682 478.5 687.5Q449 693 414 693Q268 693 170 598Q72 503 72 351Q72 198 170 102.5Q268 7 414 7Q448 7 477.5 12Q507 17 537 28V9Q510 -1 479 -6Q448 -11 414 -11Q390 -11 367 -8L352 -61Q401 -65 430.5 -87.5Q460 -110 460 -145Z" glyph-name="Ccedilla" horiz-adv-x="576" unicode="&#199;" /><glyph d="M414 693Q268 693 170 598Q72 503 72 351Q72 198 170 102.5Q268 7 414 7Q448 7 477.5 12Q507 17 537 28V9Q510 -1 479 -6Q448 -11 414 -11Q260 -11 156 90.5Q52 192 52 351Q52 509 156 610Q260 711 414 711Q448 711 479 706Q510 701 537 691V671Q508 682 478.5 687.5Q449 693 414 693ZM251 776 385 927H405L539 776H522L395 909L269 776Z" glyph-name="Ccircumflex" horiz-adv-x="576" unicode="&#264;" /><glyph d="M414 693Q268 693 170 598Q72 503 72 351Q72 198 170 102.5Q268 7 414 7Q448 7 477.5 12Q507 17 537 28V9Q510 -1 479 -6Q448 -11 414 -11Q260 -11 156 90.5Q52 192 52 351Q52 509 156 610Q260 711 414 711Q448 711 479 706Q510 701 537 691V671Q508 682 478.5 687.5Q449 693 414 693ZM395 809Q385 809 378 816.5Q371 824 371 834Q371 845 378 852.5Q385 860 395 860Q406 860 413 852.5Q420 845 420 834Q420 824 413 816.5Q406 809 395 809Z" glyph-name="Cdotaccent" horiz-adv-x="576" unicode="&#266;" /><glyph d="M287 0H113V700H287Q455 700 559 604.5Q663 509 663 351Q663 192 558.5 96Q454 0 287 0ZM133 683V17H286Q444 17 543.5 108.5Q643 200 643 351Q643 501 543.5 592Q444 683 286 683Z" glyph-name="D" horiz-adv-x="715" unicode="D" /><glyph d="M287 0H113V700H287Q455 700 559 604.5Q663 509 663 351Q663 192 558.5 96Q454 0 287 0ZM133 683V17H286Q444 17 543.5 108.5Q643 200 643 351Q643 501 543.5 592Q444 683 286 683ZM470 927 336 776H316L182 927H200L326 794L453 927Z" glyph-name="Dcaron" horiz-adv-x="715" unicode="&#270;" /><glyph d="M672 351Q672 192 567.5 96Q463 0 296 0H122V355H49V372H122V700H296Q464 700 568 604.5Q672 509 672 351ZM142 355V17H295Q453 17 552.5 108.5Q652 200 652 351Q652 501 552.5 592Q453 683 295 683H142V372H342V355Z" glyph-name="Dcroat" horiz-adv-x="724" unicode="&#272;" /><glyph d="M524 0H113V700H512V683H133V372H471V355H133V17H524Z" glyph-name="E" horiz-adv-x="599" unicode="E" /><glyph d="M524 0H113V700H512V683H133V372H471V355H133V17H524ZM489 927 324 776H303L459 927Z" glyph-name="Eacute" horiz-adv-x="599" unicode="&#201;" /><glyph d="M524 0H113V700H512V683H133V372H471V355H133V17H524ZM318 776Q251 776 211 817.5Q171 859 171 927H185Q188 863 223 828Q258 793 318 793Q379 793 414 828Q449 863 451 927H466Q466 858 425.5 817Q385 776 318 776Z" glyph-name="Ebreve" horiz-adv-x="599" unicode="&#276;" /><glyph d="M524 0H113V700H512V683H133V372H471V355H133V17H524ZM462 927 328 776H308L174 927H192L318 794L445 927Z" glyph-name="Ecaron" horiz-adv-x="599" unicode="&#282;" /><glyph d="M524 0H113V700H512V683H133V372H471V355H133V17H524ZM174 776 308 927H328L462 776H445L318 909L192 776Z" glyph-name="Ecircumflex" horiz-adv-x="599" unicode="&#202;" /><glyph d="M524 0H113V700H512V683H133V372H471V355H133V17H524ZM393 809Q383 809 375.5 816.5Q368 824 368 834Q368 845 375 852.5Q382 860 393 860Q404 860 411 852.5Q418 845 418 834Q418 824 411 816.5Q404 809 393 809ZM244 809Q234 809 226.5 816.5Q219 824 219 834Q219 845 226 852.5Q233 860 244 860Q254 860 261 852.5Q268 845 268 834Q268 824 261 816.5Q254 809 244 809Z" glyph-name="Edieresis" horiz-adv-x="599" unicode="&#203;" /><glyph d="M524 0H113V700H512V683H133V372H471V355H133V17H524ZM318 809Q308 809 301 816.5Q294 824 294 834Q294 845 301 852.5Q308 860 318 860Q329 860 336 852.5Q343 845 343 834Q343 824 336 816.5Q329 809 318 809Z" glyph-name="Edotaccent" horiz-adv-x="599" unicode="&#278;" /><glyph d="M524 0H113V700H512V683H133V372H471V355H133V17H524ZM178 927 334 776H313L148 927Z" glyph-name="Egrave" horiz-adv-x="599" unicode="&#200;" /><glyph d="M524 0H113V700H512V683H133V372H471V355H133V17H524ZM470 818V802H167V818Z" glyph-name="Emacron" horiz-adv-x="599" unicode="&#274;" /><glyph d="M552 -228H526Q574 -183 591 -135Q608 -87 608 3L132 680V0H113V700H139L608 34V700H627V-5Q627 -89 610.5 -138.5Q594 -188 552 -228Z" glyph-name="Eng" horiz-adv-x="740" unicode="&#330;" /><glyph d="M374 -159Q374 -123 395 -85Q413 -51 459 0H113V700H512V683H133V372H471V355H133V17H524V0H479Q430 -55 411.5 -90Q393 -125 393 -159Q393 -189 408.5 -206Q424 -223 450 -223Q459 -223 466 -222Q473 -221 479 -219V-233Q472 -236 465 -237.5Q458 -239 450 -239Q416 -239 395 -217.5Q374 -196 374 -159Z" glyph-name="Eogonek" horiz-adv-x="599" unicode="&#280;" /><glyph d="M672 351Q672 192 567.5 96Q463 0 296 0H122V355H49V372H122V700H296Q464 700 568 604.5Q672 509 672 351ZM142 355V17H295Q453 17 552.5 108.5Q652 200 652 351Q652 501 552.5 592Q453 683 295 683H142V372H342V355Z" glyph-name="Eth" horiz-adv-x="724" unicode="&#208;" /><glyph d="M429 438 422 422H33V438H106Q130 563 213 637Q296 711 409 711Q439 711 464.5 706Q490 701 515 691V672Q490 683 465 688Q440 693 409 693Q304 693 226.5 624.5Q149 556 125 438ZM515 28V9Q490 -1 464.5 -6Q439 -11 409 -11Q289 -11 204 72Q119 155 102 292H33V308H392L386 292H121Q137 162 216.5 84.5Q296 7 409 7Q438 7 463.5 12Q489 17 515 28Z" glyph-name="Euro" horiz-adv-x="560" unicode="&#8364;" /><glyph d="M133 355V0H113V700H497V683H133V372H464V355Z" glyph-name="F" horiz-adv-x="543" unicode="F" /><glyph d="M424 694Q354 694 288.5 669.5Q223 645 175 599Q124 553 98 490Q72 427 72 353Q72 198 173 102.5Q274 7 425 7Q463 7 497.5 11Q532 15 573 24V296H592V10Q544 -1 506 -6Q468 -11 425 -11Q265 -11 158.5 90Q52 191 52 353Q52 430 80 496.5Q108 563 161 612Q213 660 281.5 686Q350 712 424 712Q468 712 512 704.5Q556 697 593 683V663Q556 678 512.5 686Q469 694 424 694Z" glyph-name="G" horiz-adv-x="653" unicode="G" /><glyph d="M424 694Q354 694 288.5 669.5Q223 645 175 599Q124 553 98 490Q72 427 72 353Q72 198 173 102.5Q274 7 425 7Q463 7 497.5 11Q532 15 573 24V296H592V10Q544 -1 506 -6Q468 -11 425 -11Q265 -11 158.5 90Q52 191 52 353Q52 430 80 496.5Q108 563 161 612Q213 660 281.5 686Q350 712 424 712Q468 712 512 704.5Q556 697 593 683V663Q556 678 512.5 686Q469 694 424 694ZM408 776Q341 776 301 817.5Q261 859 261 927H275Q278 863 313 828Q348 793 408 793Q469 793 504 828Q539 863 541 927H556Q556 858 515.5 817Q475 776 408 776Z" glyph-name="Gbreve" horiz-adv-x="653" unicode="&#286;" /><glyph d="M424 694Q354 694 288.5 669.5Q223 645 175 599Q124 553 98 490Q72 427 72 353Q72 198 173 102.5Q274 7 425 7Q463 7 497.5 11Q532 15 573 24V296H592V10Q544 -1 506 -6Q468 -11 425 -11Q265 -11 158.5 90Q52 191 52 353Q52 430 80 496.5Q108 563 161 612Q213 660 281.5 686Q350 712 424 712Q468 712 512 704.5Q556 697 593 683V663Q556 678 512.5 686Q469 694 424 694ZM264 776 398 927H418L552 776H535L408 909L282 776Z" glyph-name="Gcircumflex" horiz-adv-x="653" unicode="&#284;" /><glyph d="M424 694Q354 694 288.5 669.5Q223 645 175 599Q124 553 98 490Q72 427 72 353Q72 198 173 102.5Q274 7 425 7Q463 7 497.5 11Q532 15 573 24V296H592V10Q544 -1 506 -6Q468 -11 425 -11Q265 -11 158.5 90Q52 191 52 353Q52 430 80 496.5Q108 563 161 612Q213 660 281.5 686Q350 712 424 712Q468 712 512 704.5Q556 697 593 683V663Q556 678 512.5 686Q469 694 424 694ZM408 809Q398 809 391 816.5Q384 824 384 834Q384 845 391 852.5Q398 860 408 860Q419 860 426 852.5Q433 845 433 834Q433 824 426 816.5Q419 809 408 809Z" glyph-name="Gdotaccent" horiz-adv-x="653" unicode="&#288;" /><glyph d="M662 0H642V355H133V0H113V700H133V372H642V700H662Z" glyph-name="H" horiz-adv-x="775" unicode="H" /><glyph d="M142 537V353H651V537ZM651 336H142V0H122V537H49V554H122V700H142V554H651V700H671V554H744V537H671V0H651Z" glyph-name="Hbar" horiz-adv-x="793" unicode="&#294;" /><glyph d="M662 0H642V355H133V0H113V700H133V372H642V700H662ZM242 776 376 927H396L530 776H513L386 909L260 776Z" glyph-name="Hcircumflex" horiz-adv-x="774" unicode="&#292;" /><glyph d="M133 0H113V700H133Z" glyph-name="I" horiz-adv-x="246" unicode="I" /><glyph d="M133 0H113V700H133ZM302 927 137 776H116L272 927Z" glyph-name="Iacute" horiz-adv-x="246" unicode="&#205;" /><glyph d="M133 0H113V700H133ZM121 776Q54 776 14 817.5Q-26 859 -26 927H-12Q-9 863 26 828Q61 793 121 793Q182 793 217 828Q252 863 254 927H269Q269 858 228.5 817Q188 776 121 776Z" glyph-name="Ibreve" horiz-adv-x="246" unicode="&#300;" /><glyph d="M133 0H113V700H133ZM-23 776 111 927H131L265 776H248L121 909L-5 776Z" glyph-name="Icircumflex" horiz-adv-x="246" unicode="&#206;" /><glyph d="M133 0H113V700H133ZM196 809Q186 809 178.5 816.5Q171 824 171 834Q171 845 178 852.5Q185 860 196 860Q207 860 214 852.5Q221 845 221 834Q221 824 214 816.5Q207 809 196 809ZM47 809Q37 809 29.5 816.5Q22 824 22 834Q22 845 29 852.5Q36 860 47 860Q57 860 64 852.5Q71 845 71 834Q71 824 64 816.5Q57 809 47 809Z" glyph-name="Idieresis" horiz-adv-x="245" unicode="&#207;" /><glyph d="M133 0H113V700H133ZM121 809Q111 809 104 816.5Q97 824 97 834Q97 845 104 852.5Q111 860 121 860Q132 860 139 852.5Q146 845 146 834Q146 824 139 816.5Q132 809 121 809Z" glyph-name="Idotaccent" horiz-adv-x="246" unicode="&#304;" /><glyph d="M133 0H113V700H133ZM-29 927 127 776H106L-59 927Z" glyph-name="Igrave" horiz-adv-x="246" unicode="&#204;" /><glyph d="M133 0H113V700H133ZM273 818V802H-30V818Z" glyph-name="Imacron" horiz-adv-x="246" unicode="&#298;" /><glyph d="M132 -219V-233Q125 -236 118 -237.5Q111 -239 103 -239Q69 -239 48 -217.5Q27 -196 27 -159Q27 -124 46 -88Q65 -52 113 0V700H133V0Q83 -56 64 -91Q45 -126 45 -159Q45 -189 61 -206Q77 -223 103 -223Q112 -223 119 -222Q126 -221 132 -219Z" glyph-name="Iogonek" horiz-adv-x="246" unicode="&#302;" /><glyph d="M133 0H113V700H133ZM198 776Q182 776 164.5 791Q147 806 114 853Q85 895 70.5 908Q56 921 44 921Q18 921 2.5 889Q-13 857 -23 776H-39Q-30 860 -10 899Q10 938 45 938Q61 938 78 923Q95 908 128 861Q157 819 172 806Q187 793 199 793Q225 793 240 824.5Q255 856 265 938H282Q273 855 252.5 815.5Q232 776 198 776Z" glyph-name="Itilde" horiz-adv-x="246" unicode="&#296;" /><glyph d="M133 700V44Q133 -49 114.5 -108.5Q96 -168 45 -228H18Q72 -170 92.5 -111Q113 -52 113 44V700Z" glyph-name="J" horiz-adv-x="246" unicode="J" /><glyph d="M133 700V44Q133 -49 114.5 -108.5Q96 -168 45 -228H18Q72 -170 92.5 -111Q113 -52 113 44V700ZM-22 776 112 927H132L266 776H249L122 909L-4 776Z" glyph-name="Jcircumflex" horiz-adv-x="246" unicode="&#308;" /><glyph d="M604 0H574L133 352V0H113V700H133V365L517 700H545L154 360Z" glyph-name="K" horiz-adv-x="630" unicode="K" /><glyph d="M113 0V700H133V17H512V0Z" glyph-name="L" horiz-adv-x="531" unicode="L" /><glyph d="M113 0V700H133V17H512V0ZM300 927 135 776H114L270 927Z" glyph-name="Lacute" horiz-adv-x="531" unicode="&#313;" /><glyph d="M113 0V700H133V17H512V0ZM384 450H367L410 702H434Z" glyph-name="Lcaron" horiz-adv-x="531" unicode="&#317;" /><glyph d="M113 0V700H133V17H512V0ZM445 327Q435 327 427.5 334.5Q420 342 420 352Q420 363 427.5 370Q435 377 445 377Q456 377 463 370Q470 363 470 352Q470 342 463 334.5Q456 327 445 327Z" glyph-name="Ldot" horiz-adv-x="531" unicode="&#319;" /><glyph d="M521 17V0H122V296L49 241V262L122 317V700H142V330L315 460V439L142 309V17Z" glyph-name="Lslash" horiz-adv-x="549" unicode="&#321;" /><glyph d="M698 676 460 94H440L202 676L95 0H76L187 700H211L450 118L689 700H713L824 0H805Z" glyph-name="M" horiz-adv-x="900" unicode="M" /><glyph d="M627 0H610L132 681V0H113V701H139L608 34V701H627Z" glyph-name="N" horiz-adv-x="740" unicode="N" /><glyph glyph-name="NULL" horiz-adv-x="0" /><glyph d="M627 0H610L132 681V0H113V701H139L608 34V701H627ZM540 927 375 776H354L510 927Z" glyph-name="Nacute" horiz-adv-x="740" unicode="&#323;" /><glyph d="M627 0H610L132 681V0H113V701H139L608 34V701H627ZM513 927 379 776H359L225 927H243L369 794L496 927Z" glyph-name="Ncaron" horiz-adv-x="740" unicode="&#327;" /><glyph d="M627 0H610L132 681V0H113V701H139L608 34V701H627ZM446 776Q430 776 412.5 791Q395 806 362 853Q333 895 318.5 908Q304 921 292 921Q266 921 250.5 889Q235 857 225 776H209Q218 860 238 899Q258 938 293 938Q309 938 326 923Q343 908 376 861Q405 819 420 806Q435 793 447 793Q473 793 488 824.5Q503 856 513 938H530Q521 855 500.5 815.5Q480 776 446 776Z" glyph-name="Ntilde" horiz-adv-x="740" unicode="&#209;" /><glyph d="M371 -11Q234 -11 143 91.5Q52 194 52 350Q52 506 143 608.5Q234 711 371 711Q508 711 599 608.5Q690 506 690 350Q690 194 599 91.5Q508 -11 371 -11ZM371 7Q500 7 585 104Q670 201 670 350Q670 499 585 596Q500 693 371 693Q242 693 157 596Q72 499 72 350Q72 201 157 104Q242 7 371 7Z" glyph-name="O" horiz-adv-x="742" unicode="O" /><glyph d="M995 0H429Q261 0 156.5 96Q52 192 52 351Q52 509 156.5 604.5Q261 700 429 700H983V683H603V372H942V355H603V17H995ZM584 17V683H430Q271 683 171.5 592.5Q72 502 72 351Q72 200 172 108.5Q272 17 430 17Z" glyph-name="OE" horiz-adv-x="1070" unicode="&#338;" /><glyph d="M371 -11Q234 -11 143 91.5Q52 194 52 350Q52 506 143 608.5Q234 711 371 711Q508 711 599 608.5Q690 506 690 350Q690 194 599 91.5Q508 -11 371 -11ZM371 7Q500 7 585 104Q670 201 670 350Q670 499 585 596Q500 693 371 693Q242 693 157 596Q72 499 72 350Q72 201 157 104Q242 7 371 7ZM541 927 376 776H355L511 927Z" glyph-name="Oacute" horiz-adv-x="742" unicode="&#211;" /><glyph d="M371 -11Q234 -11 143 91.5Q52 194 52 350Q52 506 143 608.5Q234 711 371 711Q508 711 599 608.5Q690 506 690 350Q690 194 599 91.5Q508 -11 371 -11ZM371 7Q500 7 585 104Q670 201 670 350Q670 499 585 596Q500 693 371 693Q242 693 157 596Q72 499 72 350Q72 201 157 104Q242 7 371 7ZM371 776Q304 776 264 817.5Q224 859 224 927H238Q241 863 276 828Q311 793 371 793Q432 793 467 828Q502 863 504 927H519Q519 858 478.5 817Q438 776 371 776Z" glyph-name="Obreve" horiz-adv-x="742" unicode="&#334;" /><glyph d="M371 -11Q234 -11 143 91.5Q52 194 52 350Q52 506 143 608.5Q234 711 371 711Q508 711 599 608.5Q690 506 690 350Q690 194 599 91.5Q508 -11 371 -11ZM371 7Q500 7 585 104Q670 201 670 350Q670 499 585 596Q500 693 371 693Q242 693 157 596Q72 499 72 350Q72 201 157 104Q242 7 371 7ZM227 776 361 927H381L515 776H498L371 909L245 776Z" glyph-name="Ocircumflex" horiz-adv-x="742" unicode="&#212;" /><glyph d="M371 -11Q234 -11 143 91.5Q52 194 52 350Q52 506 143 608.5Q234 711 371 711Q508 711 599 608.5Q690 506 690 350Q690 194 599 91.5Q508 -11 371 -11ZM371 7Q500 7 585 104Q670 201 670 350Q670 499 585 596Q500 693 371 693Q242 693 157 596Q72 499 72 350Q72 201 157 104Q242 7 371 7ZM446 809Q436 809 428.5 816.5Q421 824 421 834Q421 845 428 852.5Q435 860 446 860Q457 860 464 852.5Q471 845 471 834Q471 824 464 816.5Q457 809 446 809ZM297 809Q287 809 279.5 816.5Q272 824 272 834Q272 845 279 852.5Q286 860 297 860Q307 860 314 852.5Q321 845 321 834Q321 824 314 816.5Q307 809 297 809Z" glyph-name="Odieresis" horiz-adv-x="742" unicode="&#214;" /><glyph d="M371 -11Q234 -11 143 91.5Q52 194 52 350Q52 506 143 608.5Q234 711 371 711Q508 711 599 608.5Q690 506 690 350Q690 194 599 91.5Q508 -11 371 -11ZM371 7Q500 7 585 104Q670 201 670 350Q670 499 585 596Q500 693 371 693Q242 693 157 596Q72 499 72 350Q72 201 157 104Q242 7 371 7ZM231 927 387 776H366L201 927Z" glyph-name="Ograve" horiz-adv-x="742" unicode="&#210;" /><glyph d="M371 -11Q234 -11 143 91.5Q52 194 52 350Q52 506 143 608.5Q234 711 371 711Q508 711 599 608.5Q690 506 690 350Q690 194 599 91.5Q508 -11 371 -11ZM371 7Q500 7 585 104Q670 201 670 350Q670 499 585 596Q500 693 371 693Q242 693 157 596Q72 499 72 350Q72 201 157 104Q242 7 371 7ZM453 776H432L588 927H618ZM286 776H265L420 927H450Z" glyph-name="Ohungarumlaut" horiz-adv-x="742" unicode="&#336;" /><glyph d="M371 -11Q234 -11 143 91.5Q52 194 52 350Q52 506 143 608.5Q234 711 371 711Q508 711 599 608.5Q690 506 690 350Q690 194 599 91.5Q508 -11 371 -11ZM371 7Q500 7 585 104Q670 201 670 350Q670 499 585 596Q500 693 371 693Q242 693 157 596Q72 499 72 350Q72 201 157 104Q242 7 371 7ZM523 818V802H220V818Z" glyph-name="Omacron" horiz-adv-x="742" unicode="&#332;" /><glyph d="M371 693Q242 693 157 596Q72 499 72 350Q72 276 94.5 211.5Q117 147 160 101L569 612Q530 651 479 672Q428 693 371 693ZM371 7Q500 7 585 104Q670 201 670 350Q670 424 647.5 488.5Q625 553 582 600L172 88Q212 49 263 28Q314 7 371 7ZM690 350Q690 194 599 91.5Q508 -11 371 -11Q311 -11 257 11Q203 33 160 74L92 -11H71L148 86Q101 137 76.5 204.5Q52 272 52 350Q52 506 143 608.5Q234 711 371 711Q430 711 484 689.5Q538 668 581 627L649 712H672L594 614Q640 564 665 496Q690 428 690 350Z" glyph-name="Oslash" horiz-adv-x="742" unicode="&#216;" /><glyph d="M371 693Q242 693 157 596Q72 499 72 350Q72 276 94.5 211.5Q117 147 160 101L569 612Q530 651 479 672Q428 693 371 693ZM371 7Q500 7 585 104Q670 201 670 350Q670 424 647.5 488.5Q625 553 582 600L172 88Q212 49 263 28Q314 7 371 7ZM690 350Q690 194 599 91.5Q508 -11 371 -11Q311 -11 257 11Q203 33 160 74L92 -11H71L148 86Q101 137 76.5 204.5Q52 272 52 350Q52 506 143 608.5Q234 711 371 711Q430 711 484 689.5Q538 668 581 627L649 712H672L594 614Q640 564 665 496Q690 428 690 350ZM542 927 377 776H356L512 927Z" glyph-name="Oslashacute" horiz-adv-x="742" unicode="&#510;" /><glyph d="M371 -11Q234 -11 143 91.5Q52 194 52 350Q52 506 143 608.5Q234 711 371 711Q508 711 599 608.5Q690 506 690 350Q690 194 599 91.5Q508 -11 371 -11ZM371 7Q500 7 585 104Q670 201 670 350Q670 499 585 596Q500 693 371 693Q242 693 157 596Q72 499 72 350Q72 201 157 104Q242 7 371 7ZM448 776Q432 776 414.5 791Q397 806 364 853Q335 895 320.5 908Q306 921 294 921Q268 921 252.5 889Q237 857 227 776H211Q220 860 240 899Q260 938 295 938Q311 938 328 923Q345 908 378 861Q407 819 422 806Q437 793 449 793Q475 793 490 824.5Q505 856 515 938H532Q523 855 502.5 815.5Q482 776 448 776Z" glyph-name="Otilde" horiz-adv-x="742" unicode="&#213;" /><glyph d="M548 506Q548 418 484 365Q420 312 316 312H133V0H113V700H316Q420 700 484 647.5Q548 595 548 506ZM529 506Q529 588 470.5 635.5Q412 683 313 683H133V329H313Q412 329 470.5 376.5Q529 424 529 506Z" glyph-name="P" horiz-adv-x="589" unicode="P" /><glyph d="M601 -208Q507 -208 445.5 -157.5Q384 -107 364 -11Q230 -8 141 94Q52 196 52 350Q52 506 143 608.5Q234 711 371 711Q508 711 599 608.5Q690 506 690 350Q690 197 602.5 95.5Q515 -6 382 -11Q404 -100 459 -145Q514 -190 601 -190Q624 -190 642 -187.5Q660 -185 673 -180V-196Q659 -202 640 -205Q621 -208 601 -208ZM371 7Q500 7 585 104Q670 201 670 350Q670 499 585 596Q500 693 371 693Q242 693 157 596Q72 499 72 350Q72 201 157 104Q242 7 371 7Z" glyph-name="Q" horiz-adv-x="742" unicode="Q" /><glyph d="M281 683H133V343H359Q426 357 467.5 403.5Q509 450 509 516Q509 600 452 641.5Q395 683 281 683ZM373 328Q415 253 484.5 162Q554 71 623 0H598Q537 62 471.5 149Q406 236 352 326H133V0H113V700H280Q403 700 466 653.5Q529 607 529 516Q529 449 487 399Q445 349 373 328Z" glyph-name="R" horiz-adv-x="635" unicode="R" /><glyph d="M281 683H133V343H359Q426 357 467.5 403.5Q509 450 509 516Q509 600 452 641.5Q395 683 281 683ZM373 328Q415 253 484.5 162Q554 71 623 0H598Q537 62 471.5 149Q406 236 352 326H133V0H113V700H280Q403 700 466 653.5Q529 607 529 516Q529 449 487 399Q445 349 373 328ZM473 927 308 776H287L443 927Z" glyph-name="Racute" horiz-adv-x="635" unicode="&#340;" /><glyph d="M281 683H133V343H359Q426 357 467.5 403.5Q509 450 509 516Q509 600 452 641.5Q395 683 281 683ZM373 328Q415 253 484.5 162Q554 71 623 0H598Q537 62 471.5 149Q406 236 352 326H133V0H113V700H280Q403 700 466 653.5Q529 607 529 516Q529 449 487 399Q445 349 373 328ZM447 927 313 776H293L159 927H177L303 794L430 927Z" glyph-name="Rcaron" horiz-adv-x="635" unicode="&#344;" /><glyph d="M226 -11Q162 -11 104.5 6.5Q47 24 10 56V78Q53 43 108 25Q163 7 226 7Q318 7 379.5 54Q441 101 441 173Q441 209 426 237.5Q411 266 380 290Q362 303 337 316Q312 329 258 352Q201 376 175.5 390Q150 404 131 418Q99 442 84 472.5Q69 503 69 540Q69 615 128.5 663Q188 711 273 711Q316 711 352 703.5Q388 696 426 679V657Q389 676 353.5 684.5Q318 693 273 693Q196 693 142.5 650Q89 607 89 540Q89 506 103.5 478.5Q118 451 149 429Q166 416 190 403.5Q214 391 267 369Q325 345 352 330.5Q379 316 398 301Q430 275 445.5 243.5Q461 212 461 173Q461 93 393 41Q325 -11 226 -11Z" glyph-name="S" horiz-adv-x="509" unicode="S" /><glyph d="M226 -11Q162 -11 104.5 6.5Q47 24 10 56V78Q53 43 108 25Q163 7 226 7Q318 7 379.5 54Q441 101 441 173Q441 209 426 237.5Q411 266 380 290Q362 303 337 316Q312 329 258 352Q201 376 175.5 390Q150 404 131 418Q99 442 84 472.5Q69 503 69 540Q69 615 128.5 663Q188 711 273 711Q316 711 352 703.5Q388 696 426 679V657Q389 676 353.5 684.5Q318 693 273 693Q196 693 142.5 650Q89 607 89 540Q89 506 103.5 478.5Q118 451 149 429Q166 416 190 403.5Q214 391 267 369Q325 345 352 330.5Q379 316 398 301Q430 275 445.5 243.5Q461 212 461 173Q461 93 393 41Q325 -11 226 -11ZM448 927 283 776H262L418 927Z" glyph-name="Sacute" horiz-adv-x="509" unicode="&#346;" /><glyph d="M226 -11Q162 -11 104.5 6.5Q47 24 10 56V78Q53 43 108 25Q163 7 226 7Q318 7 379.5 54Q441 101 441 173Q441 209 426 237.5Q411 266 380 290Q362 303 337 316Q312 329 258 352Q201 376 175.5 390Q150 404 131 418Q99 442 84 472.5Q69 503 69 540Q69 615 128.5 663Q188 711 273 711Q316 711 352 703.5Q388 696 426 679V657Q389 676 353.5 684.5Q318 693 273 693Q196 693 142.5 650Q89 607 89 540Q89 506 103.5 478.5Q118 451 149 429Q166 416 190 403.5Q214 391 267 369Q325 345 352 330.5Q379 316 398 301Q430 275 445.5 243.5Q461 212 461 173Q461 93 393 41Q325 -11 226 -11ZM422 927 288 776H268L134 927H152L278 794L405 927Z" glyph-name="Scaron" horiz-adv-x="509" unicode="&#352;" /><glyph d="M226 -11Q162 -11 104.5 6.5Q47 24 10 56V78Q53 43 108 25Q163 7 226 7Q318 7 379.5 54Q441 101 441 173Q441 209 426 237.5Q411 266 380 290Q362 303 337 316Q312 329 258 352Q201 376 175.5 390Q150 404 131 418Q99 442 84 472.5Q69 503 69 540Q69 615 128.5 663Q188 711 273 711Q316 711 352 703.5Q388 696 426 679V657Q389 676 353.5 684.5Q318 693 273 693Q196 693 142.5 650Q89 607 89 540Q89 506 103.5 478.5Q118 451 149 429Q166 416 190 403.5Q214 391 267 369Q325 345 352 330.5Q379 316 398 301Q430 275 445.5 243.5Q461 212 461 173Q461 93 393 41Q325 -11 226 -11ZM134 776 268 927H288L422 776H405L278 909L152 776Z" glyph-name="Scircumflex" horiz-adv-x="509" unicode="&#348;" /><glyph d="M310 683H20V700H620V683H330V0H310Z" glyph-name="T" horiz-adv-x="640" unicode="T" /><glyph d="M475 372V355H330V0H310V355H183V372H310V683H20V700H620V683H330V372Z" glyph-name="Tbar" horiz-adv-x="640" unicode="&#358;" /><glyph d="M310 683H20V700H620V683H330V0H310ZM462 927 328 776H308L174 927H192L318 794L445 927Z" glyph-name="Tcaron" horiz-adv-x="640" unicode="&#356;" /><glyph d="M417 -145Q417 -186 381.5 -212.5Q346 -239 296 -239Q266 -239 241 -233Q216 -227 196 -215V-194Q219 -209 241 -215.5Q263 -222 296 -222Q339 -222 368.5 -201Q398 -180 398 -145Q398 -113 368.5 -95Q339 -77 288 -77L311 0H310V683H20V700H620V683H330V0H327L309 -61Q358 -65 387.5 -87.5Q417 -110 417 -145Z" glyph-name="Tcommaaccent" horiz-adv-x="640" unicode="&#354;" /><glyph d="M133 186V0H113V700H133V574H316Q420 574 484 521.5Q548 469 548 380Q548 291 484 238.5Q420 186 316 186ZM528 380Q528 462 470 509.5Q412 557 313 557H133V203H313Q412 203 470 250.5Q528 298 528 380Z" glyph-name="Thorn" horiz-adv-x="589" unicode="&#222;" /><glyph d="M344 -11Q220 -11 148 66.5Q76 144 76 281V700H96V284Q96 152 161.5 79.5Q227 7 344 7Q461 7 526.5 80Q592 153 592 284V700H612V281Q612 144 540 66.5Q468 -11 344 -11Z" glyph-name="U" horiz-adv-x="688" unicode="U" /><glyph d="M344 -11Q220 -11 148 66.5Q76 144 76 281V700H96V284Q96 152 161.5 79.5Q227 7 344 7Q461 7 526.5 80Q592 153 592 284V700H612V281Q612 144 540 66.5Q468 -11 344 -11ZM514 927 349 776H328L484 927Z" glyph-name="Uacute" horiz-adv-x="688" unicode="&#218;" /><glyph d="M344 -11Q220 -11 148 66.5Q76 144 76 281V700H96V284Q96 152 161.5 79.5Q227 7 344 7Q461 7 526.5 80Q592 153 592 284V700H612V281Q612 144 540 66.5Q468 -11 344 -11ZM344 776Q277 776 237 817.5Q197 859 197 927H211Q214 863 249 828Q284 793 344 793Q405 793 440 828Q475 863 477 927H492Q492 858 451.5 817Q411 776 344 776Z" glyph-name="Ubreve" horiz-adv-x="688" unicode="&#364;" /><glyph d="M344 -11Q220 -11 148 66.5Q76 144 76 281V700H96V284Q96 152 161.5 79.5Q227 7 344 7Q461 7 526.5 80Q592 153 592 284V700H612V281Q612 144 540 66.5Q468 -11 344 -11ZM200 776 334 927H354L488 776H471L344 909L218 776Z" glyph-name="Ucircumflex" horiz-adv-x="688" unicode="&#219;" /><glyph d="M344 -11Q220 -11 148 66.5Q76 144 76 281V700H96V284Q96 152 161.5 79.5Q227 7 344 7Q461 7 526.5 80Q592 153 592 284V700H612V281Q612 144 540 66.5Q468 -11 344 -11ZM419 809Q409 809 401.5 816.5Q394 824 394 834Q394 845 401 852.5Q408 860 419 860Q430 860 437 852.5Q444 845 444 834Q444 824 437 816.5Q430 809 419 809ZM270 809Q260 809 252.5 816.5Q245 824 245 834Q245 845 252 852.5Q259 860 270 860Q280 860 287 852.5Q294 845 294 834Q294 824 287 816.5Q280 809 270 809Z" glyph-name="Udieresis" horiz-adv-x="688" unicode="&#220;" /><glyph d="M344 -11Q220 -11 148 66.5Q76 144 76 281V700H96V284Q96 152 161.5 79.5Q227 7 344 7Q461 7 526.5 80Q592 153 592 284V700H612V281Q612 144 540 66.5Q468 -11 344 -11ZM203 927 359 776H338L173 927Z" glyph-name="Ugrave" horiz-adv-x="688" unicode="&#217;" /><glyph d="M344 -11Q220 -11 148 66.5Q76 144 76 281V700H96V284Q96 152 161.5 79.5Q227 7 344 7Q461 7 526.5 80Q592 153 592 284V700H612V281Q612 144 540 66.5Q468 -11 344 -11ZM426 776H405L561 927H591ZM259 776H238L393 927H423Z" glyph-name="Uhungarumlaut" horiz-adv-x="688" unicode="&#368;" /><glyph d="M344 -11Q220 -11 148 66.5Q76 144 76 281V700H96V284Q96 152 161.5 79.5Q227 7 344 7Q461 7 526.5 80Q592 153 592 284V700H612V281Q612 144 540 66.5Q468 -11 344 -11ZM496 818V802H193V818Z" glyph-name="Umacron" horiz-adv-x="688" unicode="&#362;" /><glyph d="M412 -239Q378 -239 357.5 -217.5Q337 -196 337 -159Q337 -121 361 -79.5Q385 -38 430 1Q411 -4 386.5 -7.5Q362 -11 344 -11Q220 -11 148 66.5Q76 144 76 281V700H96V284Q96 152 161.5 79.5Q227 7 344 7Q461 7 526.5 80Q592 153 592 284V700H612V281Q612 191 580 126Q548 61 486 24Q429 -10 392 -62Q355 -114 355 -159Q355 -189 370.5 -206Q386 -223 412 -223Q421 -223 428 -222Q435 -221 441 -219V-233Q434 -236 427 -237.5Q420 -239 412 -239Z" glyph-name="Uogonek" horiz-adv-x="688" unicode="&#370;" /><glyph d="M344 -11Q220 -11 148 66.5Q76 144 76 281V700H96V284Q96 152 161.5 79.5Q227 7 344 7Q461 7 526.5 80Q592 153 592 284V700H612V281Q612 144 540 66.5Q468 -11 344 -11ZM436 830Q436 792 409 765Q382 738 344 738Q306 738 279 765Q252 792 252 830Q252 868 279 894.5Q306 921 344 921Q382 921 409 894Q436 867 436 830ZM270 830Q270 798 291.5 776Q313 754 344 754Q375 754 397 776.5Q419 799 419 830Q419 861 397 883Q375 905 344 905Q313 905 291.5 883Q270 861 270 830Z" glyph-name="Uring" horiz-adv-x="688" unicode="&#366;" /><glyph d="M344 -11Q220 -11 148 66.5Q76 144 76 281V700H96V284Q96 152 161.5 79.5Q227 7 344 7Q461 7 526.5 80Q592 153 592 284V700H612V281Q612 144 540 66.5Q468 -11 344 -11ZM421 776Q405 776 387.5 791Q370 806 337 853Q308 895 293.5 908Q279 921 267 921Q241 921 225.5 889Q210 857 200 776H184Q193 860 213 899Q233 938 268 938Q284 938 301 923Q318 908 351 861Q380 819 395 806Q410 793 422 793Q448 793 463 824.5Q478 856 488 938H505Q496 855 475.5 815.5Q455 776 421 776Z" glyph-name="Utilde" horiz-adv-x="688" unicode="&#360;" /><glyph d="M629 700 340 0H319L31 700H51L330 24L610 700Z" glyph-name="V" horiz-adv-x="660" unicode="V" /><glyph d="M250 23 443 700H463L657 23L857 700H876L668 0H645L453 674L262 0H238L31 700H50Z" glyph-name="W" horiz-adv-x="907" unicode="W" /><glyph d="M250 23 443 700H463L657 23L857 700H876L668 0H645L453 674L262 0H238L31 700H50ZM623 927 458 776H437L593 927Z" glyph-name="Wacute" horiz-adv-x="907" unicode="&#7810;" /><glyph d="M250 23 443 700H463L657 23L857 700H876L668 0H645L453 674L262 0H238L31 700H50ZM309 776 443 927H463L597 776H580L453 909L327 776Z" glyph-name="Wcircumflex" horiz-adv-x="907" unicode="&#372;" /><glyph d="M250 23 443 700H463L657 23L857 700H876L668 0H645L453 674L262 0H238L31 700H50ZM528 809Q518 809 510.5 816.5Q503 824 503 834Q503 845 510 852.5Q517 860 528 860Q539 860 546 852.5Q553 845 553 834Q553 824 546 816.5Q539 809 528 809ZM379 809Q369 809 361.5 816.5Q354 824 354 834Q354 845 361 852.5Q368 860 379 860Q389 860 396 852.5Q403 845 403 834Q403 824 396 816.5Q389 809 379 809Z" glyph-name="Wdieresis" horiz-adv-x="907" unicode="&#7812;" /><glyph d="M250 23 443 700H463L657 23L857 700H876L668 0H645L453 674L262 0H238L31 700H50ZM313 927 469 776H448L283 927Z" glyph-name="Wgrave" horiz-adv-x="907" unicode="&#7808;" /><glyph d="M604 0H581L317 349L53 0H31L306 363L49 700H72L318 376L563 700H585L328 363Z" glyph-name="X" horiz-adv-x="634" unicode="X" /><glyph d="M590 700 319 322V0H300V322L30 700H52L310 338L569 700Z" glyph-name="Y" horiz-adv-x="620" unicode="Y" /><glyph d="M590 700 319 322V0H300V322L30 700H52L310 338L569 700ZM480 927 315 776H294L450 927Z" glyph-name="Yacute" horiz-adv-x="620" unicode="&#221;" /><glyph d="M590 700 319 322V0H300V322L30 700H52L310 338L569 700ZM166 776 300 927H320L454 776H437L310 909L184 776Z" glyph-name="Ycircumflex" horiz-adv-x="620" unicode="&#374;" /><glyph d="M590 700 319 322V0H300V322L30 700H52L310 338L569 700ZM385 809Q375 809 367.5 816.5Q360 824 360 834Q360 845 367 852.5Q374 860 385 860Q396 860 403 852.5Q410 845 410 834Q410 824 403 816.5Q396 809 385 809ZM236 809Q226 809 218.5 816.5Q211 824 211 834Q211 845 218 852.5Q225 860 236 860Q246 860 253 852.5Q260 845 260 834Q260 824 253 816.5Q246 809 236 809Z" glyph-name="Ydieresis" horiz-adv-x="620" unicode="&#376;" /><glyph d="M590 700 319 322V0H300V322L30 700H52L310 338L569 700ZM169 927 325 776H304L139 927Z" glyph-name="Ygrave" horiz-adv-x="620" unicode="&#7922;" /><glyph d="M79 17H593V0H54V16L556 683H66V700H581V685Z" glyph-name="Z" horiz-adv-x="643" unicode="Z" /><glyph d="M79 17H593V0H54V16L556 683H66V700H581V685ZM494 927 329 776H308L464 927Z" glyph-name="Zacute" horiz-adv-x="643" unicode="&#377;" /><glyph d="M79 17H593V0H54V16L556 683H66V700H581V685ZM467 927 333 776H313L179 927H197L323 794L450 927Z" glyph-name="Zcaron" horiz-adv-x="643" unicode="&#381;" /><glyph d="M79 17H593V0H54V16L556 683H66V700H581V685ZM323 809Q313 809 306 816.5Q299 824 299 834Q299 845 306 852.5Q313 860 323 860Q334 860 341 852.5Q348 845 348 834Q348 824 341 816.5Q334 809 323 809Z" glyph-name="Zdotaccent" horiz-adv-x="643" unicode="&#379;" /><glyph d="M68 117Q68 66 103 36Q138 6 194 6Q237 6 281.5 23.5Q326 41 374 77V272Q222 268 145 229Q68 190 68 117ZM403 0H385L375 59Q329 25 283 7Q237 -11 194 -11Q130 -11 89.5 23.5Q49 58 49 117Q49 198 130.5 241Q212 284 374 289V362Q374 433 337 468Q300 503 226 503Q191 503 149 490Q107 477 74 454V474Q104 495 146.5 508Q189 521 226 521Q307 521 349.5 481Q392 441 392 365V87Q392 62 397.5 32.5Q403 3 403 0Z" glyph-name="a" horiz-adv-x="485" unicode="a" /><glyph d="M68 117Q68 66 103 36Q138 6 194 6Q237 6 281.5 23.5Q326 41 374 77V272Q222 268 145 229Q68 190 68 117ZM403 0H385L375 59Q329 25 283 7Q237 -11 194 -11Q130 -11 89.5 23.5Q49 58 49 117Q49 198 130.5 241Q212 284 374 289V362Q374 433 337 468Q300 503 226 503Q191 503 149 490Q107 477 74 454V474Q104 495 146.5 508Q189 521 226 521Q307 521 349.5 481Q392 441 392 365V87Q392 62 397.5 32.5Q403 3 403 0ZM328 791 241 612H224L305 791Z" glyph-name="aacute" horiz-adv-x="485" unicode="&#225;" /><glyph d="M68 117Q68 66 103 36Q138 6 194 6Q237 6 281.5 23.5Q326 41 374 77V272Q222 268 145 229Q68 190 68 117ZM403 0H385L375 59Q329 25 283 7Q237 -11 194 -11Q130 -11 89.5 23.5Q49 58 49 117Q49 198 130.5 241Q212 284 374 289V362Q374 433 337 468Q300 503 226 503Q191 503 149 490Q107 477 74 454V474Q104 495 146.5 508Q189 521 226 521Q307 521 349.5 481Q392 441 392 365V87Q392 62 397.5 32.5Q403 3 403 0ZM234 612Q175 612 140.5 662Q106 712 106 791H122Q125 713 153.5 671.5Q182 630 234 630Q287 630 315.5 672Q344 714 346 791H363Q363 712 328.5 662Q294 612 234 612Z" glyph-name="abreve" horiz-adv-x="485" unicode="&#259;" /><glyph d="M68 117Q68 66 103 36Q138 6 194 6Q237 6 281.5 23.5Q326 41 374 77V272Q222 268 145 229Q68 190 68 117ZM403 0H385L375 59Q329 25 283 7Q237 -11 194 -11Q130 -11 89.5 23.5Q49 58 49 117Q49 198 130.5 241Q212 284 374 289V362Q374 433 337 468Q300 503 226 503Q191 503 149 490Q107 477 74 454V474Q104 495 146.5 508Q189 521 226 521Q307 521 349.5 481Q392 441 392 365V87Q392 62 397.5 32.5Q403 3 403 0ZM127 612 224 791H244L342 612H325L234 770L143 612Z" glyph-name="acircumflex" horiz-adv-x="485" unicode="&#226;" /><glyph d="M310 791 223 612H206L287 791Z" glyph-name="acute" horiz-adv-x="517" unicode="&#180;" /><glyph d="M351 927 186 776H165L321 927Z" glyph-name="acute.cap" horiz-adv-x="517" /><glyph d="M68 117Q68 66 103 36Q138 6 194 6Q237 6 281.5 23.5Q326 41 374 77V272Q222 268 145 229Q68 190 68 117ZM403 0H385L375 59Q329 25 283 7Q237 -11 194 -11Q130 -11 89.5 23.5Q49 58 49 117Q49 198 130.5 241Q212 284 374 289V362Q374 433 337 468Q300 503 226 503Q191 503 149 490Q107 477 74 454V474Q104 495 146.5 508Q189 521 226 521Q307 521 349.5 481Q392 441 392 365V87Q392 62 397.5 32.5Q403 3 403 0ZM309 689Q299 689 291.5 696.5Q284 704 284 714Q284 725 291 732.5Q298 740 309 740Q320 740 327 732.5Q334 725 334 714Q334 704 327 696.5Q320 689 309 689ZM160 689Q150 689 142.5 696.5Q135 704 135 714Q135 725 142 732.5Q149 740 160 740Q170 740 177 732.5Q184 725 184 714Q184 704 177 696.5Q170 689 160 689Z" glyph-name="adieresis" horiz-adv-x="485" unicode="&#228;" /><glyph d="M623 -11Q545 -11 483 33.5Q421 78 393 153Q370 80 315 34.5Q260 -11 194 -11Q131 -11 90 24.5Q49 60 49 119Q49 203 131.5 248.5Q214 294 374 298V360Q374 431 337 467Q300 503 226 503Q191 503 149 490Q107 477 74 454V474Q104 495 146.5 508Q189 521 226 521Q307 521 349.5 479Q392 437 392 360V359Q419 434 473 477.5Q527 521 597 521Q689 521 736.5 458Q784 395 780 282H392Q391 278 391 273.5Q391 269 391 260Q391 153 457.5 79.5Q524 6 623 6Q664 6 697.5 15.5Q731 25 769 46V26Q737 8 700 -1.5Q663 -11 623 -11ZM597 504Q519 504 462 445.5Q405 387 393 298H761Q764 391 720.5 447.5Q677 504 597 504ZM68 119Q68 68 103 37Q138 6 194 6Q258 6 310 52Q362 98 386 176Q380 195 377 216.5Q374 238 374 260V282Q224 278 146 236.5Q68 195 68 119Z" glyph-name="ae" horiz-adv-x="829" unicode="&#230;" /><glyph d="M623 -11Q545 -11 483 33.5Q421 78 393 153Q370 80 315 34.5Q260 -11 194 -11Q131 -11 90 24.5Q49 60 49 119Q49 203 131.5 248.5Q214 294 374 298V360Q374 431 337 467Q300 503 226 503Q191 503 149 490Q107 477 74 454V474Q104 495 146.5 508Q189 521 226 521Q307 521 349.5 479Q392 437 392 360V359Q419 434 473 477.5Q527 521 597 521Q689 521 736.5 458Q784 395 780 282H392Q391 278 391 273.5Q391 269 391 260Q391 153 457.5 79.5Q524 6 623 6Q664 6 697.5 15.5Q731 25 769 46V26Q737 8 700 -1.5Q663 -11 623 -11ZM597 504Q519 504 462 445.5Q405 387 393 298H761Q764 391 720.5 447.5Q677 504 597 504ZM68 119Q68 68 103 37Q138 6 194 6Q258 6 310 52Q362 98 386 176Q380 195 377 216.5Q374 238 374 260V282Q224 278 146 236.5Q68 195 68 119ZM509 791 422 612H405L486 791Z" glyph-name="aeacute" horiz-adv-x="829" unicode="&#509;" /><glyph d="M68 117Q68 66 103 36Q138 6 194 6Q237 6 281.5 23.5Q326 41 374 77V272Q222 268 145 229Q68 190 68 117ZM403 0H385L375 59Q329 25 283 7Q237 -11 194 -11Q130 -11 89.5 23.5Q49 58 49 117Q49 198 130.5 241Q212 284 374 289V362Q374 433 337 468Q300 503 226 503Q191 503 149 490Q107 477 74 454V474Q104 495 146.5 508Q189 521 226 521Q307 521 349.5 481Q392 441 392 365V87Q392 62 397.5 32.5Q403 3 403 0ZM164 791 244 612H228L140 791Z" glyph-name="agrave" horiz-adv-x="485" unicode="&#224;" /><glyph d="M68 117Q68 66 103 36Q138 6 194 6Q237 6 281.5 23.5Q326 41 374 77V272Q222 268 145 229Q68 190 68 117ZM403 0H385L375 59Q329 25 283 7Q237 -11 194 -11Q130 -11 89.5 23.5Q49 58 49 117Q49 198 130.5 241Q212 284 374 289V362Q374 433 337 468Q300 503 226 503Q191 503 149 490Q107 477 74 454V474Q104 495 146.5 508Q189 521 226 521Q307 521 349.5 481Q392 441 392 365V87Q392 62 397.5 32.5Q403 3 403 0ZM367 688V671H101V688Z" glyph-name="amacron" horiz-adv-x="485" unicode="&#257;" /><glyph d="M65 195Q65 114 126.5 60.5Q188 7 278 7Q340 7 394 32.5Q448 58 490 106L236 365Q234 368 231.5 370.5Q229 373 226 375Q152 359 108.5 310.5Q65 262 65 195ZM620 0H594L502 93Q456 42 399 15.5Q342 -11 278 -11Q179 -11 112.5 48Q46 107 46 195Q46 266 90.5 317.5Q135 369 213 390Q169 436 152.5 470Q136 504 136 543Q136 618 188 664.5Q240 711 322 711Q363 711 401 699.5Q439 688 473 665V642Q437 670 402 681.5Q367 693 322 693Q248 693 201.5 652Q155 611 155 543Q155 507 173 472Q191 437 248 379L502 120Q546 175 572 247Q598 319 600 393H617Q615 317 588 241Q561 165 514 108Z" glyph-name="ampersand" horiz-adv-x="675" unicode="&amp;" /><glyph d="M403 -219V-233Q396 -236 389 -237.5Q382 -239 374 -239Q340 -239 319 -217.5Q298 -196 298 -159Q298 -124 317.5 -87Q337 -50 385 2L375 59Q329 25 283 7Q237 -11 194 -11Q130 -11 89.5 23.5Q49 58 49 117Q49 198 130.5 241Q212 284 374 289V362Q374 433 337 468Q300 503 226 503Q191 503 149 490Q107 477 74 454V474Q104 495 146.5 508Q189 521 226 521Q307 521 349.5 481Q392 441 392 365V87Q392 62 397.5 32.5Q403 3 403 0Q354 -55 335.5 -90Q317 -125 317 -159Q317 -189 332.5 -206Q348 -223 374 -223Q383 -223 390 -222Q397 -221 403 -219ZM68 117Q68 66 103 36Q138 6 194 6Q237 6 281.5 23.5Q326 41 374 77V272Q222 268 145 229Q68 190 68 117Z" glyph-name="aogonek" horiz-adv-x="485" unicode="&#261;" /><glyph d="M68 117Q68 66 103 36Q138 6 194 6Q237 6 281.5 23.5Q326 41 374 77V272Q222 268 145 229Q68 190 68 117ZM403 0H385L375 59Q329 25 283 7Q237 -11 194 -11Q130 -11 89.5 23.5Q49 58 49 117Q49 198 130.5 241Q212 284 374 289V362Q374 433 337 468Q300 503 226 503Q191 503 149 490Q107 477 74 454V474Q104 495 146.5 508Q189 521 226 521Q307 521 349.5 481Q392 441 392 365V87Q392 62 397.5 32.5Q403 3 403 0ZM234 790Q272 790 299 763.5Q326 737 326 699Q326 661 299 634Q272 607 234 607Q196 607 169.5 634Q143 661 143 699Q143 737 170 763.5Q197 790 234 790ZM234 773Q203 773 181.5 751.5Q160 730 160 699Q160 667 181.5 645Q203 623 234 623Q265 623 287 645Q309 667 309 699Q309 730 287 751.5Q265 773 234 773Z" glyph-name="aring" horiz-adv-x="485" unicode="&#229;" /><glyph d="M31 419 217 701H239L426 419H405L228 677L52 419Z" glyph-name="asciicircum" horiz-adv-x="456" unicode="^" /><glyph d="M377 250Q356 250 334 261Q312 272 274 307Q238 339 219 349Q200 359 182 359Q143 359 119.5 332Q96 305 85 247H67Q78 312 107.5 345Q137 378 184 378Q205 378 226 367Q247 356 286 322Q322 289 341 279Q360 269 379 269Q418 269 441 296Q464 323 475 381H493Q482 315 453 282.5Q424 250 377 250Z" glyph-name="asciitilde" horiz-adv-x="564" unicode="~" /><glyph d="M280 511 266 500 243 530 180 621 117 530 94 500 80 511 102 541 169 630 62 661 27 673 33 691 69 679 174 642 171 753V791H189V753L186 642L291 679L327 691L333 673L297 661L191 630L258 541Z" glyph-name="asterisk" horiz-adv-x="360" unicode="*" /><glyph d="M880 131Q851 88 809 62.5Q767 37 725 37Q691 37 668 48.5Q645 60 626 86Q588 57 547 41.5Q506 26 468 26Q411 26 376 56Q341 86 341 137Q341 208 412 246Q483 284 624 288V350Q624 412 592.5 442.5Q561 473 496 473Q464 473 428 461.5Q392 450 363 430V449Q389 468 426 479.5Q463 491 496 491Q567 491 604.5 455.5Q642 420 642 354V92Q657 72 676 63Q695 54 725 54Q800 54 855.5 127Q911 200 911 312Q911 479 799 587.5Q687 696 521 696Q429 696 346 660.5Q263 625 201 559Q140 494 108 410Q76 326 76 231Q76 137 109.5 56Q143 -25 206 -86Q268 -146 351 -178Q434 -210 526 -210Q619 -210 698.5 -184Q778 -158 846 -106V-126Q785 -174 702.5 -200Q620 -226 526 -226Q431 -226 344.5 -192.5Q258 -159 194 -98Q128 -35 93 49Q58 133 58 231Q58 329 91.5 416.5Q125 504 188 570Q253 639 339 675.5Q425 712 521 712Q604 712 679 682.5Q754 653 811 599Q869 543 899.5 469.5Q930 396 930 312Q930 260 917.5 214Q905 168 880 131ZM359 137Q359 93 388.5 67.5Q418 42 468 42Q506 42 544 57Q582 72 624 103V272Q491 269 425 235.5Q359 202 359 137Z" glyph-name="at" horiz-adv-x="988" unicode="@" /><glyph d="M68 117Q68 66 103 36Q138 6 194 6Q237 6 281.5 23.5Q326 41 374 77V272Q222 268 145 229Q68 190 68 117ZM403 0H385L375 59Q329 25 283 7Q237 -11 194 -11Q130 -11 89.5 23.5Q49 58 49 117Q49 198 130.5 241Q212 284 374 289V362Q374 433 337 468Q300 503 226 503Q191 503 149 490Q107 477 74 454V474Q104 495 146.5 508Q189 521 226 521Q307 521 349.5 481Q392 441 392 365V87Q392 62 397.5 32.5Q403 3 403 0ZM311 627Q295 627 277.5 642Q260 657 227 704Q198 746 183.5 759Q169 772 157 772Q131 772 115.5 740Q100 708 90 627H74Q83 711 103 750Q123 789 158 789Q174 789 191 774Q208 759 241 712Q270 670 285 657Q300 644 312 644Q338 644 353 675.5Q368 707 378 789H395Q386 706 365.5 666.5Q345 627 311 627Z" glyph-name="atilde" horiz-adv-x="485" unicode="&#227;" /><glyph d="M254 -11Q206 -11 167 -2Q128 7 94 26V791L113 798V449Q147 480 195 500.5Q243 521 287 521Q389 521 449.5 454.5Q510 388 510 272Q510 146 438.5 67.5Q367 -11 254 -11ZM287 504Q243 504 197.5 485Q152 466 113 432V36Q138 21 175 13Q212 5 254 5Q359 5 425 79.5Q491 154 491 272Q491 379 435 441.5Q379 504 287 504Z" glyph-name="b" horiz-adv-x="557" unicode="b" /><glyph d="M3 791H24L331 -122H311Z" glyph-name="backslash" horiz-adv-x="334" unicode="\" /><glyph d="M133 791V-122H113V791Z" glyph-name="bar" horiz-adv-x="245" unicode="|" /><glyph d="M61 326H3V343H61Q94 343 116.5 369Q139 395 139 436L114 661Q114 723 146.5 757Q179 791 237 791Q257 791 274.5 787Q292 783 312 773V756Q294 765 275 769.5Q256 774 237 774Q187 774 160 745Q133 716 133 661L157 435Q157 396 136 368Q115 340 81 334Q114 329 135.5 300.5Q157 272 157 234L133 7Q133 -48 160 -77Q187 -106 237 -106Q257 -106 276.5 -101Q296 -96 312 -87V-104Q294 -114 276 -118Q258 -122 237 -122Q179 -122 146.5 -88Q114 -54 114 7L139 232Q139 273 116.5 299.5Q94 326 61 326Z" glyph-name="braceleft" horiz-adv-x="324" unicode="{" /><glyph d="M263 326Q230 326 207.5 299.5Q185 273 185 232L210 7Q210 -54 177.5 -88Q145 -122 87 -122Q66 -122 48 -118Q30 -114 12 -104V-87Q28 -96 47.5 -101Q67 -106 87 -106Q137 -106 164 -77Q191 -48 191 7L167 234Q167 272 188.5 300.5Q210 329 243 334Q209 340 188 368Q167 396 167 435L191 661Q191 716 164 745Q137 774 87 774Q68 774 49 769.5Q30 765 12 756V773Q32 783 49.5 787Q67 791 87 791Q145 791 177.5 757Q210 723 210 661L185 436Q185 395 207.5 369Q230 343 263 343H321V326H263Z" glyph-name="braceright" horiz-adv-x="324" unicode="}" /><glyph d="M287 774H85V-106H287V-122H67V791H287Z" glyph-name="bracketleft" horiz-adv-x="299" unicode="[" /><glyph d="M12 791H232V-122H12V-106H214V774H12Z" glyph-name="bracketright" horiz-adv-x="299" unicode="]" /><glyph d="M258 612Q199 612 164.5 662Q130 712 130 791H146Q149 713 177.5 671.5Q206 630 258 630Q311 630 339.5 672Q368 714 370 791H387Q387 712 352.5 662Q318 612 258 612Z" glyph-name="breve" horiz-adv-x="517" unicode="&#728;" /><glyph d="M258 776Q191 776 151 817.5Q111 859 111 927H125Q128 863 163 828Q198 793 258 793Q319 793 354 828Q389 863 391 927H406Q406 858 365.5 817Q325 776 258 776Z" glyph-name="breve.cap" horiz-adv-x="517" /><glyph d="M283 273Q283 228 251.5 196.5Q220 165 175 165Q130 165 98.5 196.5Q67 228 67 273Q67 318 98.5 350Q130 382 175 382Q220 382 251.5 350Q283 318 283 273Z" glyph-name="bullet" horiz-adv-x="350" unicode="&#8226;" /><glyph d="M293 -11Q187 -11 117 65Q47 141 47 255Q47 369 117 445Q187 521 293 521Q323 521 355 512Q387 503 412 488V469Q384 486 353.5 495Q323 504 293 504Q196 504 131 433Q66 362 66 255Q66 148 131 77Q196 6 293 6Q323 6 353.5 15Q384 24 412 41V22Q387 7 355 -2Q323 -11 293 -11Z" glyph-name="c" horiz-adv-x="456" unicode="c" /><glyph d="M293 -11Q187 -11 117 65Q47 141 47 255Q47 369 117 445Q187 521 293 521Q323 521 355 512Q387 503 412 488V469Q384 486 353.5 495Q323 504 293 504Q196 504 131 433Q66 362 66 255Q66 148 131 77Q196 6 293 6Q323 6 353.5 15Q384 24 412 41V22Q387 7 355 -2Q323 -11 293 -11ZM386 791 299 612H282L363 791Z" glyph-name="cacute" horiz-adv-x="456" unicode="&#263;" /><glyph d="M366 791 268 612H248L151 791H167L258 633L349 791Z" glyph-name="caron" horiz-adv-x="517" unicode="&#711;" /><glyph d="M195 539H178L221 791H245Z" glyph-name="caron.Slovak" horiz-adv-x="425" /><glyph d="M402 927 268 776H248L114 927H132L258 794L385 927Z" glyph-name="caron.cap" horiz-adv-x="517" /><glyph d="M293 -11Q187 -11 117 65Q47 141 47 255Q47 369 117 445Q187 521 293 521Q323 521 355 512Q387 503 412 488V469Q384 486 353.5 495Q323 504 293 504Q196 504 131 433Q66 362 66 255Q66 148 131 77Q196 6 293 6Q323 6 353.5 15Q384 24 412 41V22Q387 7 355 -2Q323 -11 293 -11ZM400 791 302 612H282L185 791H201L292 633L383 791Z" glyph-name="ccaron" horiz-adv-x="456" unicode="&#269;" /><glyph d="M348 -145Q348 -186 312.5 -212.5Q277 -239 227 -239Q197 -239 172 -233Q147 -227 127 -215V-194Q150 -209 172 -215.5Q194 -222 227 -222Q270 -222 299.5 -201Q329 -180 329 -145Q329 -113 299.5 -95Q270 -77 219 -77L240 -6Q168 9 117 65Q47 141 47 255Q47 369 117 445Q187 521 293 521Q323 521 355 512Q387 503 412 488V469Q384 486 353.5 495Q323 504 293 504Q196 504 131 433Q66 362 66 255Q66 148 131 77Q196 6 293 6Q323 6 353.5 15Q384 24 412 41V22Q387 7 355 -2Q323 -11 293 -11Q273 -11 255 -8L240 -61Q289 -65 318.5 -87.5Q348 -110 348 -145Z" glyph-name="ccedilla" horiz-adv-x="456" unicode="&#231;" /><glyph d="M293 -11Q187 -11 117 65Q47 141 47 255Q47 369 117 445Q187 521 293 521Q323 521 355 512Q387 503 412 488V469Q384 486 353.5 495Q323 504 293 504Q196 504 131 433Q66 362 66 255Q66 148 131 77Q196 6 293 6Q323 6 353.5 15Q384 24 412 41V22Q387 7 355 -2Q323 -11 293 -11ZM185 612 282 791H302L400 612H383L292 770L201 612Z" glyph-name="ccircumflex" horiz-adv-x="456" unicode="&#265;" /><glyph d="M293 -11Q187 -11 117 65Q47 141 47 255Q47 369 117 445Q187 521 293 521Q323 521 355 512Q387 503 412 488V469Q384 486 353.5 495Q323 504 293 504Q196 504 131 433Q66 362 66 255Q66 148 131 77Q196 6 293 6Q323 6 353.5 15Q384 24 412 41V22Q387 7 355 -2Q323 -11 293 -11ZM292 690Q282 690 274.5 697.5Q267 705 267 715Q267 726 274.5 733Q282 740 292 740Q303 740 310 733Q317 726 317 715Q317 705 310 697.5Q303 690 292 690Z" glyph-name="cdotaccent" horiz-adv-x="456" unicode="&#267;" /><glyph d="M358 -145Q358 -186 322.5 -212.5Q287 -239 237 -239Q207 -239 182 -233Q157 -227 137 -215V-194Q160 -209 182 -215.5Q204 -222 237 -222Q280 -222 309.5 -201Q339 -180 339 -145Q339 -113 309.5 -95Q280 -77 229 -77L254 7H270L250 -61Q299 -65 328.5 -87.5Q358 -110 358 -145Z" glyph-name="cedilla" horiz-adv-x="517" unicode="&#184;" /><glyph d="M293 74Q290 74 287 74Q284 74 281 74V-77H262V76Q163 87 100.5 163.5Q38 240 38 349Q38 459 100.5 535.5Q163 612 262 623V773H281V625Q284 625 287 625Q290 625 293 625Q323 625 355.5 616Q388 607 417 591V571Q387 589 355 598.5Q323 608 293 608Q192 608 124.5 534Q57 460 57 349Q57 239 124.5 165Q192 91 293 91Q323 91 355 100.5Q387 110 417 128V107Q389 91 356.5 82.5Q324 74 293 74Z" glyph-name="cent" horiz-adv-x="474" unicode="&#162;" /><glyph d="M151 612 248 791H268L366 612H349L258 770L167 612Z" glyph-name="circumflex" horiz-adv-x="517" unicode="&#710;" /><glyph d="M114 776 248 927H268L402 776H385L258 909L132 776Z" glyph-name="circumflex.cap" horiz-adv-x="517" /><glyph d="M95 0Q84 0 76.5 8Q69 16 69 27Q69 39 76.5 47Q84 55 95 55Q107 55 114.5 47Q122 39 122 27Q122 15 114.5 7.5Q107 0 95 0ZM95 387Q84 387 76.5 395Q69 403 69 414Q69 426 76.5 434Q84 442 95 442Q107 442 114.5 434Q122 426 122 414Q122 402 114.5 394.5Q107 387 95 387Z" glyph-name="colon" horiz-adv-x="190" unicode=":" /><glyph d="M83 65H109Q109 11 94 -40Q79 -91 52 -133H31Q56 -94 69.5 -42.5Q83 9 83 65Z" glyph-name="comma" horiz-adv-x="190" unicode="," /><glyph d="M31 351Q31 505 135 608.5Q239 712 392 712Q545 712 648.5 609Q752 506 752 351Q752 196 648.5 92.5Q545 -11 392 -11Q239 -11 135 92.5Q31 196 31 351ZM49 351Q49 204 148 105.5Q247 7 392 7Q537 7 635.5 105.5Q734 204 734 351Q734 498 635.5 596Q537 694 392 694Q247 694 148 595.5Q49 497 49 351ZM423 153Q337 153 279 209.5Q221 266 221 354Q221 443 279 499.5Q337 556 423 556Q442 556 459 553.5Q476 551 492 545V527Q477 533 460.5 536Q444 539 423 539Q344 539 291.5 487.5Q239 436 239 354Q239 272 291.5 220.5Q344 169 423 169Q441 169 458 172Q475 175 492 181V164Q476 158 459 155.5Q442 153 423 153Z" glyph-name="copyright" horiz-adv-x="783" unicode="&#169;" /><glyph d="M270 6Q314 6 360 25Q406 44 444 78V476Q413 491 382 498Q351 505 317 505Q209 505 137.5 430Q66 355 66 239Q66 132 122 69Q178 6 270 6ZM463 0 444 -7V61Q410 30 362 9.5Q314 -11 270 -11Q169 -11 108 56.5Q47 124 47 239Q47 362 124 441.5Q201 521 317 521Q350 521 381.5 514Q413 507 444 493V791L463 798Z" glyph-name="d" horiz-adv-x="557" unicode="d" /><glyph d="M150 661 153 582V466H134V582L137 661L59 659H21V677H59L137 674L134 753V791H153V753L150 674L230 677H267V659H230Z" glyph-name="dagger" horiz-adv-x="289" unicode="&#8224;" /><glyph d="M150 569 153 504V466H134V504L137 569L59 567H21V585H59L136 582V675L59 672H21V691H59L137 688L134 753V791H153V753L150 688L230 691H267V672H230L151 675V582L230 585H267V567H230Z" glyph-name="daggerdbl" horiz-adv-x="289" unicode="&#8225;" /><glyph d="M270 6Q314 6 360 25Q406 44 444 78V476Q413 491 382 498Q351 505 317 505Q209 505 137.5 430Q66 355 66 239Q66 132 122 69Q178 6 270 6ZM463 0 444 -7V61Q410 30 362 9.5Q314 -11 270 -11Q169 -11 108 56.5Q47 124 47 239Q47 362 124 441.5Q201 521 317 521Q350 521 381.5 514Q413 507 444 493V791L463 798ZM584 539H567L610 791H634Z" glyph-name="dcaron" horiz-adv-x="610" unicode="&#271;" /><glyph d="M270 6Q314 6 360 25Q406 44 444 78V476Q413 491 382 498Q351 505 317 505Q209 505 137.5 430Q66 355 66 239Q66 132 122 69Q178 6 270 6ZM444 -7V61Q410 30 362 9.5Q314 -11 270 -11Q169 -11 108 56.5Q47 124 47 239Q47 362 124 441.5Q201 521 317 521Q350 521 381.5 514Q413 507 444 493V635H269V651H444V791L463 798V651H535V635H463V0Z" glyph-name="dcroat" horiz-adv-x="557" unicode="&#273;" /><glyph d="M31 578Q31 633 70.5 672.5Q110 712 164 712Q221 712 260.5 673Q300 634 300 578Q300 521 260.5 482Q221 443 164 443Q109 443 70 482.5Q31 522 31 578ZM49 578Q49 530 83 495.5Q117 461 164 461Q214 461 248 495Q282 529 282 578Q282 627 248 660.5Q214 694 164 694Q117 694 83 660Q49 626 49 578Z" glyph-name="degree" horiz-adv-x="331" unicode="&#176;" /><glyph d="M333 689Q323 689 315.5 696.5Q308 704 308 714Q308 725 315 732.5Q322 740 333 740Q344 740 351 732.5Q358 725 358 714Q358 704 351 696.5Q344 689 333 689ZM184 689Q174 689 166.5 696.5Q159 704 159 714Q159 725 166 732.5Q173 740 184 740Q194 740 201 732.5Q208 725 208 714Q208 704 201 696.5Q194 689 184 689Z" glyph-name="dieresis" horiz-adv-x="517" unicode="&#168;" /><glyph d="M333 809Q323 809 315.5 816.5Q308 824 308 834Q308 845 315 852.5Q322 860 333 860Q344 860 351 852.5Q358 845 358 834Q358 824 351 816.5Q344 809 333 809ZM184 809Q174 809 166.5 816.5Q159 824 159 834Q159 845 166 852.5Q173 860 184 860Q194 860 201 852.5Q208 845 208 834Q208 824 201 816.5Q194 809 184 809Z" glyph-name="dieresis.cap" horiz-adv-x="517" /><glyph d="M280 502Q270 502 263 509Q256 516 256 527Q256 538 263 545.5Q270 553 280 553Q291 553 298 545.5Q305 538 305 527Q305 517 298 509.5Q291 502 280 502ZM534 320H24V338H534ZM280 107Q270 107 263 114Q256 121 256 132Q256 143 263 150.5Q270 158 280 158Q291 158 298 150.5Q305 143 305 132Q305 122 298 114.5Q291 107 280 107Z" glyph-name="divide" horiz-adv-x="559" unicode="&#247;" /><glyph d="M236 75V-77H216V74Q215 74 213.5 74Q212 74 210 74Q159 74 115 85Q71 96 37 118V140Q75 114 116.5 102.5Q158 91 210 91Q284 91 335 127Q386 163 386 221Q386 260 358 288Q330 316 238 349Q142 385 112 415.5Q82 446 82 489Q82 538 119 574.5Q156 611 216 622V773H236V624Q240 625 244 625Q248 625 257 625Q288 625 316.5 619Q345 613 373 600V579Q346 593 317 600.5Q288 608 257 608Q189 608 144.5 574.5Q100 541 100 489Q100 451 127.5 424.5Q155 398 244 366Q291 349 312.5 338.5Q334 328 350 318Q378 299 391 275Q404 251 404 221Q404 162 357 122.5Q310 83 236 75Z" glyph-name="dollar" horiz-adv-x="459" unicode="$" /><glyph d="M258 690Q248 690 240.5 697.5Q233 705 233 715Q233 726 240.5 733Q248 740 258 740Q269 740 276 733Q283 726 283 715Q283 705 276 697.5Q269 690 258 690Z" glyph-name="dotaccent" horiz-adv-x="517" unicode="&#729;" /><glyph d="M258 809Q248 809 241 816.5Q234 824 234 834Q234 845 241 852.5Q248 860 258 860Q269 860 276 852.5Q283 845 283 834Q283 824 276 816.5Q269 809 258 809Z" glyph-name="dotaccent.cap" horiz-adv-x="517" /><glyph d="M113 0H94V510L113 517Z" glyph-name="dotlessi" horiz-adv-x="207" unicode="&#305;" /><glyph d="M270 504Q192 504 136 446Q80 388 68 298H434V307Q434 397 391 450.5Q348 504 270 504ZM442 46V26Q410 8 373 -1.5Q336 -11 296 -11Q189 -11 118 67Q47 145 47 260Q47 371 110.5 446Q174 521 270 521Q358 521 405.5 462Q453 403 453 297V282H67Q66 278 66 273.5Q66 269 66 260Q66 152 132 79Q198 6 296 6Q337 6 370.5 15.5Q404 25 442 46Z" glyph-name="e" horiz-adv-x="502" unicode="e" /><glyph d="M270 504Q192 504 136 446Q80 388 68 298H434V307Q434 397 391 450.5Q348 504 270 504ZM442 46V26Q410 8 373 -1.5Q336 -11 296 -11Q189 -11 118 67Q47 145 47 260Q47 371 110.5 446Q174 521 270 521Q358 521 405.5 462Q453 403 453 297V282H67Q66 278 66 273.5Q66 269 66 260Q66 152 132 79Q198 6 296 6Q337 6 370.5 15.5Q404 25 442 46ZM369 791 282 612H265L346 791Z" glyph-name="eacute" horiz-adv-x="502" unicode="&#233;" /><glyph d="M270 504Q192 504 136 446Q80 388 68 298H434V307Q434 397 391 450.5Q348 504 270 504ZM442 46V26Q410 8 373 -1.5Q336 -11 296 -11Q189 -11 118 67Q47 145 47 260Q47 371 110.5 446Q174 521 270 521Q358 521 405.5 462Q453 403 453 297V282H67Q66 278 66 273.5Q66 269 66 260Q66 152 132 79Q198 6 296 6Q337 6 370.5 15.5Q404 25 442 46ZM275 612Q216 612 181.5 662Q147 712 147 791H163Q166 713 194.5 671.5Q223 630 275 630Q328 630 356.5 672Q385 714 387 791H404Q404 712 369.5 662Q335 612 275 612Z" glyph-name="ebreve" horiz-adv-x="502" unicode="&#277;" /><glyph d="M270 504Q192 504 136 446Q80 388 68 298H434V307Q434 397 391 450.5Q348 504 270 504ZM442 46V26Q410 8 373 -1.5Q336 -11 296 -11Q189 -11 118 67Q47 145 47 260Q47 371 110.5 446Q174 521 270 521Q358 521 405.5 462Q453 403 453 297V282H67Q66 278 66 273.5Q66 269 66 260Q66 152 132 79Q198 6 296 6Q337 6 370.5 15.5Q404 25 442 46ZM383 791 285 612H265L168 791H184L275 633L366 791Z" glyph-name="ecaron" horiz-adv-x="502" unicode="&#283;" /><glyph d="M270 504Q192 504 136 446Q80 388 68 298H434V307Q434 397 391 450.5Q348 504 270 504ZM442 46V26Q410 8 373 -1.5Q336 -11 296 -11Q189 -11 118 67Q47 145 47 260Q47 371 110.5 446Q174 521 270 521Q358 521 405.5 462Q453 403 453 297V282H67Q66 278 66 273.5Q66 269 66 260Q66 152 132 79Q198 6 296 6Q337 6 370.5 15.5Q404 25 442 46ZM168 612 265 791H285L383 612H366L275 770L184 612Z" glyph-name="ecircumflex" horiz-adv-x="502" unicode="&#234;" /><glyph d="M270 504Q192 504 136 446Q80 388 68 298H434V307Q434 397 391 450.5Q348 504 270 504ZM442 46V26Q410 8 373 -1.5Q336 -11 296 -11Q189 -11 118 67Q47 145 47 260Q47 371 110.5 446Q174 521 270 521Q358 521 405.5 462Q453 403 453 297V282H67Q66 278 66 273.5Q66 269 66 260Q66 152 132 79Q198 6 296 6Q337 6 370.5 15.5Q404 25 442 46ZM350 689Q340 689 332.5 696.5Q325 704 325 714Q325 725 332 732.5Q339 740 350 740Q361 740 368 732.5Q375 725 375 714Q375 704 368 696.5Q361 689 350 689ZM201 689Q191 689 183.5 696.5Q176 704 176 714Q176 725 183 732.5Q190 740 201 740Q211 740 218 732.5Q225 725 225 714Q225 704 218 696.5Q211 689 201 689Z" glyph-name="edieresis" horiz-adv-x="502" unicode="&#235;" /><glyph d="M270 504Q192 504 136 446Q80 388 68 298H434V307Q434 397 391 450.5Q348 504 270 504ZM442 46V26Q410 8 373 -1.5Q336 -11 296 -11Q189 -11 118 67Q47 145 47 260Q47 371 110.5 446Q174 521 270 521Q358 521 405.5 462Q453 403 453 297V282H67Q66 278 66 273.5Q66 269 66 260Q66 152 132 79Q198 6 296 6Q337 6 370.5 15.5Q404 25 442 46ZM275 690Q265 690 257.5 697.5Q250 705 250 715Q250 726 257.5 733Q265 740 275 740Q286 740 293 733Q300 726 300 715Q300 705 293 697.5Q286 690 275 690Z" glyph-name="edotaccent" horiz-adv-x="502" unicode="&#279;" /><glyph d="M270 504Q192 504 136 446Q80 388 68 298H434V307Q434 397 391 450.5Q348 504 270 504ZM442 46V26Q410 8 373 -1.5Q336 -11 296 -11Q189 -11 118 67Q47 145 47 260Q47 371 110.5 446Q174 521 270 521Q358 521 405.5 462Q453 403 453 297V282H67Q66 278 66 273.5Q66 269 66 260Q66 152 132 79Q198 6 296 6Q337 6 370.5 15.5Q404 25 442 46ZM205 791 285 612H269L181 791Z" glyph-name="egrave" horiz-adv-x="502" unicode="&#232;" /><glyph d="M492 181Q492 97 428 43Q364 -11 266 -11Q171 -11 107 43.5Q43 98 43 180Q43 247 96 303Q149 359 227 382L213 389Q148 420 115.5 459.5Q83 499 83 546Q83 616 136.5 663.5Q190 711 268 711Q349 711 403.5 665.5Q458 620 458 548Q458 491 417 443Q376 395 304 365L315 360Q418 311 455 271Q492 231 492 181ZM102 546Q102 501 132.5 466.5Q163 432 234 398L292 371Q365 406 402.5 451Q440 496 440 548Q440 612 391.5 652.5Q343 693 268 693Q197 693 149.5 651Q102 609 102 546ZM61 180Q61 107 120 57Q179 7 265 7Q355 7 414 56Q473 105 473 181Q473 226 439.5 261.5Q406 297 308 344L241 376Q161 347 111 294Q61 241 61 180Z" glyph-name="eight" horiz-adv-x="536" unicode="8" /><glyph d="M492 181Q492 97 428 43Q364 -11 266 -11Q171 -11 107 43.5Q43 98 43 180Q43 247 96 303Q149 359 227 382L213 389Q148 420 115.5 459.5Q83 499 83 546Q83 616 136.5 663.5Q190 711 268 711Q349 711 403.5 665.5Q458 620 458 548Q458 491 417 443Q376 395 304 365L315 360Q418 311 455 271Q492 231 492 181ZM102 546Q102 501 132.5 466.5Q163 432 234 398L292 371Q364 405 402 450Q440 495 440 548Q440 612 391.5 652.5Q343 693 268 693Q197 693 149.5 651Q102 609 102 546ZM62 180Q62 107 121 57Q180 7 265 7Q355 7 414 56Q473 105 473 181Q473 227 438 263Q403 299 307 344L241 376Q161 347 111.5 294Q62 241 62 180Z" glyph-name="eight.op" horiz-adv-x="536" /><glyph d="M95 -1Q84 -1 76.5 7Q69 15 69 26Q69 38 76.5 46Q84 54 95 54Q107 54 114.5 46Q122 38 122 26Q122 14 114.5 6.5Q107 -1 95 -1ZM335 -1Q324 -1 316.5 7Q309 15 309 26Q309 38 316.5 46Q324 54 335 54Q347 54 354.5 46Q362 38 362 26Q362 14 354.5 6.5Q347 -1 335 -1ZM575 -1Q564 -1 556.5 7Q549 15 549 26Q549 38 556.5 46Q564 54 575 54Q587 54 594.5 46Q602 38 602 26Q602 14 594.5 6.5Q587 -1 575 -1Z" glyph-name="ellipsis" horiz-adv-x="671" unicode="&#8230;" /><glyph d="M270 504Q192 504 136 446Q80 388 68 298H434V307Q434 397 391 450.5Q348 504 270 504ZM442 46V26Q410 8 373 -1.5Q336 -11 296 -11Q189 -11 118 67Q47 145 47 260Q47 371 110.5 446Q174 521 270 521Q358 521 405.5 462Q453 403 453 297V282H67Q66 278 66 273.5Q66 269 66 260Q66 152 132 79Q198 6 296 6Q337 6 370.5 15.5Q404 25 442 46ZM408 688V671H142V688Z" glyph-name="emacron" horiz-adv-x="502" unicode="&#275;" /><glyph d="M1019 266H67V282H1019Z" glyph-name="emdash" horiz-adv-x="1086" unicode="&#8212;" /><glyph d="M563 266H67V282H563Z" glyph-name="endash" horiz-adv-x="630" unicode="&#8211;" /><glyph d="M393 -228H368Q415 -184 433 -136Q451 -88 451 -5V353Q451 434 416.5 469Q382 504 306 504Q260 504 207.5 484Q155 464 113 432V0H94V510L113 517V449Q152 479 206 500Q260 521 306 521Q388 521 428.5 480.5Q469 440 469 358V-5Q469 -88 452.5 -138Q436 -188 393 -228Z" glyph-name="eng" horiz-adv-x="561" unicode="&#331;" /><glyph d="M270 504Q192 504 136 446Q80 388 68 298H434V307Q434 397 391 450.5Q348 504 270 504ZM389 -219V-233Q382 -236 374.5 -237.5Q367 -239 359 -239Q325 -239 304.5 -217.5Q284 -196 284 -159Q284 -122 306.5 -82.5Q329 -43 373 -2Q351 -7 332 -9Q313 -11 296 -11Q189 -11 118 67Q47 145 47 260Q47 371 110.5 446Q174 521 270 521Q358 521 405.5 462Q453 403 453 297V282H67Q66 278 66 273.5Q66 269 66 260Q66 152 132 79Q198 6 296 6Q337 6 370.5 15.5Q404 25 442 46V26Q378 -8 340 -59.5Q302 -111 302 -159Q302 -189 317.5 -206Q333 -223 359 -223Q367 -223 374.5 -222Q382 -221 389 -219Z" glyph-name="eogonek" horiz-adv-x="502" unicode="&#281;" /><glyph d="M534 413H24V431H534ZM534 229H24V247H534Z" glyph-name="equal" horiz-adv-x="559" unicode="=" /><glyph d="M492 282Q492 150 429.5 69.5Q367 -11 269 -11Q175 -11 111 64.5Q47 140 47 255Q47 370 115.5 445.5Q184 521 285 521Q329 521 369 506.5Q409 492 444 464Q424 523 389.5 574Q355 625 305 670L154 623V642L289 683Q253 713 210 739.5Q167 766 115 790L130 801Q184 776 228.5 748.5Q273 721 309 690L420 724V705L325 676Q409 599 450.5 501Q492 403 492 282ZM66 255Q66 147 124 76.5Q182 6 269 6Q359 6 415.5 82Q472 158 472 282Q472 324 467 363.5Q462 403 452 440Q418 471 375.5 487.5Q333 504 285 504Q192 504 129 433Q66 362 66 255Z" glyph-name="eth" horiz-adv-x="538" unicode="&#240;" /><glyph d="M125 700 117 227H106L98 700ZM112 -1Q101 -1 93 7Q85 15 85 26Q85 38 93 46Q101 54 112 54Q123 54 130.5 46Q138 38 138 26Q138 15 130.5 7Q123 -1 112 -1Z" glyph-name="exclam" horiz-adv-x="223" unicode="!" /><glyph d="M98 0 106 473H117L125 0ZM111 701Q122 701 130 693Q138 685 138 674Q138 662 130 654Q122 646 111 646Q100 646 92.5 654Q85 662 85 674Q85 685 92.5 693Q100 701 111 701Z" glyph-name="exclamdown" horiz-adv-x="223" unicode="&#161;" /><glyph d="M300 494H119V0H100V494H19V510H100V570Q100 679 154.5 740.5Q209 802 303 802Q321 802 336.5 800Q352 798 367 793V775Q352 780 337 782Q322 784 303 784Q215 784 167 728Q119 672 119 568V510H306Z" glyph-name="f" horiz-adv-x="282" unicode="f" /><glyph d="M615 521Q717 521 777.5 454.5Q838 388 838 272Q838 146 766.5 67.5Q695 -11 582 -11Q534 -11 495 -2Q456 7 422 26V767Q405 774 377.5 779Q350 784 326 784Q226 784 172.5 721Q119 658 119 541V510H306L300 494H119V0H100V494H19V510H100V543Q100 665 159.5 733.5Q219 802 326 802Q354 802 387 795Q420 788 441 778V449Q475 480 523 500.5Q571 521 615 521ZM615 504Q571 504 525.5 485Q480 466 441 432V36Q466 21 503 13Q540 5 582 5Q687 5 753 79.5Q819 154 819 272Q819 379 763 441.5Q707 504 615 504Z" glyph-name="f_b" horiz-adv-x="885" /><glyph d="M937 521Q1039 521 1099.5 454.5Q1160 388 1160 272Q1160 146 1088.5 67.5Q1017 -11 904 -11Q856 -11 817 -2Q778 7 744 26V767Q727 774 699.5 779Q672 784 648 784Q548 784 494.5 721Q441 658 441 541V510H628L622 494H441V0H422V494H119V0H100V494H19V510H100V557Q100 666 154.5 727Q209 788 303 788Q320 788 335.5 786Q351 784 367 780V762Q352 767 337 769Q322 771 303 771Q215 771 167 715Q119 659 119 555V510H422V543Q422 665 481.5 733.5Q541 802 648 802Q676 802 709 795Q742 788 763 778V449Q797 480 845 500.5Q893 521 937 521ZM937 504Q893 504 847.5 485Q802 466 763 432V36Q788 21 825 13Q862 5 904 5Q1009 5 1075 79.5Q1141 154 1141 272Q1141 379 1085 441.5Q1029 504 937 504Z" glyph-name="f_f_b" horiz-adv-x="1207" /><glyph d="M119 494V0H100V494H19V510H100V557Q100 666 154.5 727Q209 788 303 788Q320 788 335.5 786Q351 784 367 780V762Q352 767 337 769Q322 771 303 771Q215 771 167 715Q119 659 119 555V510H422V543Q422 665 481.5 733.5Q541 802 648 802Q676 802 709 795Q742 788 763 778V449Q805 480 857.5 500.5Q910 521 956 521Q1038 521 1078.5 480.5Q1119 440 1119 358V0H1100V353Q1100 434 1066 469Q1032 504 956 504Q910 504 858.5 484.5Q807 465 763 432V0H744V767Q727 774 699.5 779Q672 784 648 784Q548 784 494.5 721Q441 658 441 541V510H628L622 494H441V0H422V494Z" glyph-name="f_f_h" horiz-adv-x="1212" /><glyph d="M828 689Q818 689 810.5 696.5Q803 704 803 714Q803 725 810 732.5Q817 740 828 740Q839 740 846 732.5Q853 725 853 714Q853 704 846 696.5Q839 689 828 689ZM119 494V0H100V494H19V510H100V557Q100 666 154.5 727Q209 788 303 788Q320 788 335.5 786Q351 784 367 780V762Q352 767 337 769Q322 771 303 771Q215 771 167 715Q119 659 119 555V510H422V570Q422 679 476.5 740.5Q531 802 625 802Q643 802 658.5 800Q674 798 689 793V775Q674 780 659 782Q644 784 625 784Q537 784 489 728Q441 672 441 568V510H743L762 517V0H743V494H441V0H422V494Z" glyph-name="f_f_idieresis" horiz-adv-x="856" /><glyph d="M762 517V-5Q762 -89 745.5 -138.5Q729 -188 687 -228H661Q708 -185 725.5 -137Q743 -89 743 -5V494H441V0H422V494H119V0H100V494H19V510H100V557Q100 666 154.5 727Q209 788 303 788Q320 788 335.5 786Q351 784 367 780V762Q352 767 337 769Q322 771 303 771Q215 771 167 715Q119 659 119 555V510H422V543Q422 663 485 732.5Q548 802 657 802Q679 802 698 799.5Q717 797 737 792V773Q719 779 701.5 781.5Q684 784 657 784Q555 784 498 720Q441 656 441 541V510H743Z" glyph-name="f_f_j" horiz-adv-x="856" /><glyph d="M119 494V0H100V494H19V510H100V557Q100 666 154.5 727Q209 788 303 788Q320 788 335.5 786Q351 784 367 780V762Q352 767 337 769Q322 771 303 771Q215 771 167 715Q119 659 119 555V510H422V543Q422 665 481.5 733.5Q541 802 648 802Q676 802 709 795Q742 788 763 778V286L1061 510H1090L786 284L1135 0H1107L763 280V0H744V767Q727 774 699.5 779Q672 784 648 784Q548 784 494.5 721Q441 658 441 541V510H628L622 494H441V0H422V494Z" glyph-name="f_f_k" horiz-adv-x="1157" /><glyph d="M119 494V0H100V494H19V510H100V557Q100 666 154.5 727Q209 788 303 788Q320 788 335.5 786Q351 784 367 780V762Q352 767 337 769Q322 771 303 771Q215 771 167 715Q119 659 119 555V510H422V570Q422 677 474 739.5Q526 802 612 802Q622 802 632.5 801Q643 800 648 799V782Q640 783 633 783.5Q626 784 612 784Q532 784 486.5 727Q441 670 441 568V510H628L622 494H441V0H422V494Z" glyph-name="f_f_short" horiz-adv-x="604" /><glyph d="M300 494H119V0H100V494H19V510H100V543Q100 665 159.5 733.5Q219 802 326 802Q354 802 387 795Q420 788 441 778V449Q483 480 535.5 500.5Q588 521 634 521Q716 521 756.5 480.5Q797 440 797 358V0H778V353Q778 434 744 469Q710 504 634 504Q588 504 536.5 484.5Q485 465 441 432V0H422V767Q405 774 377.5 779Q350 784 326 784Q226 784 172.5 721Q119 658 119 541V510H306Z" glyph-name="f_h" horiz-adv-x="889" /><glyph d="M506 689Q496 689 488.5 696.5Q481 704 481 714Q481 725 488 732.5Q495 740 506 740Q517 740 524 732.5Q531 725 531 714Q531 704 524 696.5Q517 689 506 689ZM119 494V0H100V494H19V510H100V570Q100 679 154.5 740.5Q209 802 303 802Q321 802 336.5 800Q352 798 367 793V775Q352 780 337 782Q322 784 303 784Q215 784 167 728Q119 672 119 568V510H421L440 517V0H421V494Z" glyph-name="f_idieresis" horiz-adv-x="534" /><glyph d="M440 517V-5Q440 -89 423.5 -138.5Q407 -188 365 -228H339Q386 -185 403.5 -137Q421 -89 421 -5V494H119V0H100V494H19V510H100V543Q100 663 163 732.5Q226 802 335 802Q357 802 376 799.5Q395 797 415 792V773Q397 779 379.5 781.5Q362 784 335 784Q233 784 176 720Q119 656 119 541V510H421Z" glyph-name="f_j" horiz-adv-x="534" /><glyph d="M300 494H119V0H100V494H19V510H100V543Q100 665 159.5 733.5Q219 802 326 802Q354 802 387 795Q420 788 441 778V286L739 510H768L464 284L813 0H785L441 280V0H422V767Q405 774 377.5 779Q350 784 326 784Q226 784 172.5 721Q119 658 119 541V510H306Z" glyph-name="f_k" horiz-adv-x="835" /><glyph d="M300 494H119V0H100V494H19V510H100V570Q100 677 152 739.5Q204 802 290 802Q300 802 310.5 801Q321 800 326 799V782Q318 783 311 783.5Q304 784 290 784Q210 784 164.5 727Q119 670 119 568V510H306Z" glyph-name="f_short" horiz-adv-x="282" /><glyph d="M118 494V0H100V494H19V510H100V557Q100 666 154.5 727Q209 788 303 788Q320 788 335.5 786Q351 784 367 780V762Q352 767 337 769Q322 771 303 771Q215 771 166.5 715Q118 659 118 555V510H422V570Q422 679 476.5 740.5Q531 802 625 802Q643 802 658.5 800Q674 798 689 793V775Q674 780 659 782Q644 784 625 784Q537 784 489 728Q441 672 441 568V510H628L622 494H441V0H422V494Z" glyph-name="ff" horiz-adv-x="604" unicode="&#64256;" /><glyph d="M119 494V0H100V494H19V510H100V557Q100 666 154.5 727Q209 788 303 788Q320 788 335.5 786Q351 784 367 780V762Q352 767 337 769Q322 771 303 771Q215 771 167 715Q119 659 119 555V510H422V543Q422 663 485 732.5Q548 802 657 802Q679 802 698 799.5Q717 797 737 792V773Q719 779 701.5 781.5Q684 784 657 784Q555 784 498 720Q441 656 441 541V510H743L762 517V0H743V494H441V0H422V494Z" glyph-name="ffi" horiz-adv-x="856" unicode="&#64259;" /><glyph d="M119 494V0H100V494H19V510H100V557Q100 666 154.5 727Q209 788 303 788Q320 788 335.5 786Q351 784 367 780V762Q352 767 337 769Q322 771 303 771Q215 771 167 715Q119 659 119 555V510H422V543Q422 665 481.5 733.5Q541 802 648 802Q676 802 709 795Q742 788 763 778V0H744V767Q727 774 699.5 779Q672 784 648 784Q548 784 494.5 721Q441 658 441 541V510H628L622 494H441V0H422V494Z" glyph-name="ffl" horiz-adv-x="857" unicode="&#64260;" /><glyph d="M119 494V0H100V494H19V510H100V543Q100 663 163 732.5Q226 802 335 802Q357 802 376 799.5Q395 797 415 792V773Q397 779 379.5 781.5Q362 784 335 784Q233 784 176 720Q119 656 119 541V510H421L440 517V0H421V494Z" glyph-name="fi" horiz-adv-x="534" unicode="&#64257;" /><glyph d="M196 7Q294 7 362.5 67Q431 127 431 220Q431 316 343 375.5Q255 435 103 448L124 700H427V683H141L122 464Q277 447 364 384Q451 321 451 220Q451 120 376.5 54.5Q302 -11 196 -11Q142 -11 98.5 1.5Q55 14 18 41V66Q54 36 98 21.5Q142 7 196 7Z" glyph-name="five" horiz-adv-x="500" unicode="5" /><glyph d="M196 -115Q294 -115 362.5 -55Q431 5 431 97Q431 194 344 253.5Q257 313 103 326L124 579H427V562H140L122 343Q276 327 363 263Q450 199 450 97Q450 -3 376 -68Q302 -133 196 -133Q142 -133 98.5 -120.5Q55 -108 18 -81V-56Q54 -86 98 -100.5Q142 -115 196 -115Z" glyph-name="five.op" horiz-adv-x="500" /><glyph d="M422 0V767Q405 774 377.5 779Q350 784 326 784Q226 784 172.5 721Q119 658 119 541V510H306L300 494H119V0H100V494H19V510H100V543Q100 665 159.5 733.5Q219 802 326 802Q354 802 387 795Q420 788 441 778V0Z" glyph-name="fl" horiz-adv-x="535" unicode="&#64258;" /><glyph d="M381 203V0H362V203H30V220Q62 329 137 469Q212 609 287 700H311Q237 615 162 476.5Q87 338 48 220H362V435H381V220H559V203Z" glyph-name="four" horiz-adv-x="578" unicode="4" /><glyph d="M367 81V-122H348V81H30V97Q62 206 136.5 346.5Q211 487 287 579H311Q238 494 162.5 355Q87 216 48 98H348V312H367V98H544V81Z" glyph-name="four.op" horiz-adv-x="563" /><glyph d="M235 194Q302 194 347.5 238Q393 282 393 349Q393 416 347.5 460Q302 504 235 504Q167 504 121.5 460Q76 416 76 349Q76 282 121.5 238Q167 194 235 194ZM479 -72Q479 -144 406 -191.5Q333 -239 236 -239Q138 -239 75.5 -198.5Q13 -158 13 -95Q13 -45 54 -8Q95 29 169 48Q148 56 136 71.5Q124 87 124 106Q124 128 140 146.5Q156 165 190 182Q131 197 94 242.5Q57 288 57 349Q57 422 109 471.5Q161 521 235 521Q251 521 266.5 518.5Q282 516 298 510H485L479 494H331Q369 470 390.5 432Q412 394 412 349Q412 276 360.5 226.5Q309 177 235 177Q225 177 220.5 177Q216 177 212 178Q178 165 160.5 146.5Q143 128 143 107Q143 86 159 73.5Q175 61 209 56L305 44Q410 29 444.5 2.5Q479 -24 479 -72ZM32 -95Q32 -151 89 -186.5Q146 -222 236 -222Q327 -222 393.5 -180Q460 -138 460 -72Q460 -32 428.5 -9Q397 14 307 26L205 40Q132 31 82 -7Q32 -45 32 -95Z" glyph-name="g" horiz-adv-x="496" unicode="g" /><glyph d="M235 194Q302 194 347.5 238Q393 282 393 349Q393 416 347.5 460Q302 504 235 504Q167 504 121.5 460Q76 416 76 349Q76 282 121.5 238Q167 194 235 194ZM479 -72Q479 -144 406 -191.5Q333 -239 236 -239Q138 -239 75.5 -198.5Q13 -158 13 -95Q13 -45 54 -8Q95 29 169 48Q148 56 136 71.5Q124 87 124 106Q124 128 140 146.5Q156 165 190 182Q131 197 94 242.5Q57 288 57 349Q57 422 109 471.5Q161 521 235 521Q251 521 266.5 518.5Q282 516 298 510H485L479 494H331Q369 470 390.5 432Q412 394 412 349Q412 276 360.5 226.5Q309 177 235 177Q225 177 220.5 177Q216 177 212 178Q178 165 160.5 146.5Q143 128 143 107Q143 86 159 73.5Q175 61 209 56L305 44Q410 29 444.5 2.5Q479 -24 479 -72ZM32 -95Q32 -151 89 -186.5Q146 -222 236 -222Q327 -222 393.5 -180Q460 -138 460 -72Q460 -32 428.5 -9Q397 14 307 26L205 40Q132 31 82 -7Q32 -45 32 -95ZM249 612Q190 612 155.5 662Q121 712 121 791H137Q140 713 168.5 671.5Q197 630 249 630Q302 630 330.5 672Q359 714 361 791H378Q378 712 343.5 662Q309 612 249 612Z" glyph-name="gbreve" horiz-adv-x="496" unicode="&#287;" /><glyph d="M235 194Q302 194 347.5 238Q393 282 393 349Q393 416 347.5 460Q302 504 235 504Q167 504 121.5 460Q76 416 76 349Q76 282 121.5 238Q167 194 235 194ZM479 -72Q479 -144 406 -191.5Q333 -239 236 -239Q138 -239 75.5 -198.5Q13 -158 13 -95Q13 -45 54 -8Q95 29 169 48Q148 56 136 71.5Q124 87 124 106Q124 128 140 146.5Q156 165 190 182Q131 197 94 242.5Q57 288 57 349Q57 422 109 471.5Q161 521 235 521Q251 521 266.5 518.5Q282 516 298 510H485L479 494H331Q369 470 390.5 432Q412 394 412 349Q412 276 360.5 226.5Q309 177 235 177Q225 177 220.5 177Q216 177 212 178Q178 165 160.5 146.5Q143 128 143 107Q143 86 159 73.5Q175 61 209 56L305 44Q410 29 444.5 2.5Q479 -24 479 -72ZM32 -95Q32 -151 89 -186.5Q146 -222 236 -222Q327 -222 393.5 -180Q460 -138 460 -72Q460 -32 428.5 -9Q397 14 307 26L205 40Q132 31 82 -7Q32 -45 32 -95ZM142 612 239 791H259L357 612H340L249 770L158 612Z" glyph-name="gcircumflex" horiz-adv-x="496" unicode="&#285;" /><glyph d="M235 194Q302 194 347.5 238Q393 282 393 349Q393 416 347.5 460Q302 504 235 504Q167 504 121.5 460Q76 416 76 349Q76 282 121.5 238Q167 194 235 194ZM479 -72Q479 -144 406 -191.5Q333 -239 236 -239Q138 -239 75.5 -198.5Q13 -158 13 -95Q13 -45 54 -8Q95 29 169 48Q148 56 136 71.5Q124 87 124 106Q124 128 140 146.5Q156 165 190 182Q131 197 94 242.5Q57 288 57 349Q57 422 109 471.5Q161 521 235 521Q251 521 266.5 518.5Q282 516 298 510H485L479 494H331Q369 470 390.5 432Q412 394 412 349Q412 276 360.5 226.5Q309 177 235 177Q225 177 220.5 177Q216 177 212 178Q178 165 160.5 146.5Q143 128 143 107Q143 86 159 73.5Q175 61 209 56L305 44Q410 29 444.5 2.5Q479 -24 479 -72ZM32 -95Q32 -151 89 -186.5Q146 -222 236 -222Q327 -222 393.5 -180Q460 -138 460 -72Q460 -32 428.5 -9Q397 14 307 26L205 40Q132 31 82 -7Q32 -45 32 -95ZM249 690Q239 690 231.5 697.5Q224 705 224 715Q224 726 231.5 733Q239 740 249 740Q260 740 267 733Q274 726 274 715Q274 705 267 697.5Q260 690 249 690Z" glyph-name="gdotaccent" horiz-adv-x="496" unicode="&#289;" /><glyph d="M289 802Q371 802 425.5 750Q480 698 483 622Q386 562 346.5 516Q307 470 307 422Q307 384 330 354.5Q353 325 428 282Q505 239 528.5 208Q552 177 552 138Q552 74 501 31.5Q450 -11 377 -11Q329 -11 288 0Q247 11 217 31V53Q250 29 289.5 17.5Q329 6 377 6Q442 6 487.5 43.5Q533 81 533 138Q533 172 511 199.5Q489 227 418 268Q339 313 314 346.5Q289 380 289 422Q289 472 327.5 519.5Q366 567 463 630Q460 693 411 738.5Q362 784 289 784Q205 784 159 728Q113 672 113 568V0H94V570Q94 681 145.5 741.5Q197 802 289 802Z" glyph-name="germandbls" horiz-adv-x="612" unicode="&#223;" /><glyph d="M230 791 310 612H294L206 791Z" glyph-name="grave" horiz-adv-x="517" unicode="`" /><glyph d="M195 927 351 776H330L165 927Z" glyph-name="grave.cap" horiz-adv-x="517" /><glyph d="M68 144 533 337 68 530V548L551 348V326L68 126Z" glyph-name="greater" horiz-adv-x="559" unicode="&gt;" /><glyph d="M369 481 226 271 369 63H349L204 271L349 481ZM205 481 62 271 205 63H185L40 271L185 481Z" glyph-name="guillemotleft" horiz-adv-x="408" unicode="&#171;" /><glyph d="M59 63H40L182 271L40 481H59L205 271ZM223 63H204L346 271L204 481H223L369 271Z" glyph-name="guillemotright" horiz-adv-x="408" unicode="&#187;" /><glyph d="M205 481 62 271 205 63H185L40 271L185 481Z" glyph-name="guilsinglleft" horiz-adv-x="244" unicode="&#8249;" /><glyph d="M59 63H40L182 271L40 481H59L205 271Z" glyph-name="guilsinglright" horiz-adv-x="244" unicode="&#8250;" /><glyph d="M94 0V790L113 797V449Q152 479 206 500Q260 521 306 521Q388 521 428.5 480.5Q469 440 469 358V0H450V353Q450 434 416 469Q382 504 306 504Q260 504 207.5 484Q155 464 113 432V0Z" glyph-name="h" horiz-adv-x="561" unicode="h" /><glyph d="M306 504Q260 504 207.5 484Q155 464 113 432V0H94V635H21V651H94V790L113 797V651H287V635H113V449Q152 479 206 500Q260 521 306 521Q388 521 428.5 480.5Q469 440 469 358V0H450V353Q450 434 416 469Q382 504 306 504Z" glyph-name="hbar" horiz-adv-x="561" unicode="&#295;" /><glyph d="M94 0V790L113 797V449Q152 479 206 500Q260 521 306 521Q388 521 428.5 480.5Q469 440 469 358V0H450V353Q450 434 416 469Q382 504 306 504Q260 504 207.5 484Q155 464 113 432V0ZM137 831 271 982H291L425 831H408L281 964L155 831Z" glyph-name="hcircumflex" horiz-adv-x="561" unicode="&#293;" /><glyph d="M293 612H277L357 791H380ZM153 612H136L216 791H240Z" glyph-name="hungarumlaut" horiz-adv-x="517" unicode="&#733;" /><glyph d="M270 776H249L405 927H435ZM103 776H82L237 927H267Z" glyph-name="hungarumlaut.cap" horiz-adv-x="517" /><glyph d="M327 266H67V282H327Z" glyph-name="hyphen" horiz-adv-x="394" unicode="-" /><glyph d="M103 690Q93 690 85.5 697.5Q78 705 78 715Q78 726 85.5 733Q93 740 103 740Q114 740 121 733Q128 726 128 715Q128 705 121 697.5Q114 690 103 690ZM113 0H94V510L113 517Z" glyph-name="i" horiz-adv-x="207" unicode="i" /><glyph d="M113 0H94V510L113 517ZM197 791 110 612H93L174 791Z" glyph-name="iacute" horiz-adv-x="207" unicode="&#237;" /><glyph d="M113 0H94V510L113 517ZM103 612Q44 612 9.5 662Q-25 712 -25 791H-9Q-6 713 22.5 671.5Q51 630 103 630Q156 630 184.5 672Q213 714 215 791H232Q232 712 197.5 662Q163 612 103 612Z" glyph-name="ibreve" horiz-adv-x="207" unicode="&#301;" /><glyph d="M113 0H94V510L113 517ZM-4 612 93 791H113L211 612H194L103 770L12 612Z" glyph-name="icircumflex" horiz-adv-x="207" unicode="&#238;" /><glyph d="M113 0H94V510L113 517ZM178 689Q168 689 160.5 696.5Q153 704 153 714Q153 725 160 732.5Q167 740 178 740Q189 740 196 732.5Q203 725 203 714Q203 704 196 696.5Q189 689 178 689ZM29 689Q19 689 11.5 696.5Q4 704 4 714Q4 725 11 732.5Q18 740 29 740Q39 740 46 732.5Q53 725 53 714Q53 704 46 696.5Q39 689 29 689Z" glyph-name="idieresis" horiz-adv-x="207" unicode="&#239;" /><glyph d="M113 0H94V510L113 517ZM103 690Q93 690 85.5 697.5Q78 705 78 715Q78 726 85.5 733Q93 740 103 740Q114 740 121 733Q128 726 128 715Q128 705 121 697.5Q114 690 103 690Z" glyph-name="idotaccent" horiz-adv-x="207" /><glyph d="M113 0H94V510L113 517ZM33 791 113 612H97L9 791Z" glyph-name="igrave" horiz-adv-x="207" unicode="&#236;" /><glyph d="M113 0H94V510L113 517ZM236 688V671H-30V688Z" glyph-name="imacron" horiz-adv-x="207" unicode="&#299;" /><glyph d="M103 689Q93 689 86 696.5Q79 704 79 714Q79 725 86 732.5Q93 740 103 740Q114 740 121 732.5Q128 725 128 714Q128 704 121 696.5Q114 689 103 689ZM113 -219V-233Q106 -236 98.5 -237.5Q91 -239 83 -239Q49 -239 28.5 -217.5Q8 -196 8 -159Q8 -124 27.5 -87.5Q47 -51 94 2V510L113 517V0Q64 -55 45 -90Q26 -125 26 -159Q26 -189 41.5 -206Q57 -223 83 -223Q91 -223 98.5 -222Q106 -221 113 -219Z" glyph-name="iogonek" horiz-adv-x="207" unicode="&#303;" /><glyph d="M113 0H94V510L113 517ZM180 627Q164 627 146.5 642Q129 657 96 704Q67 746 52.5 759Q38 772 26 772Q0 772 -15.5 740Q-31 708 -41 627H-57Q-48 711 -28 750Q-8 789 27 789Q43 789 60 774Q77 759 110 712Q139 670 154 657Q169 644 181 644Q207 644 222 675.5Q237 707 247 789H264Q255 706 234.5 666.5Q214 627 180 627Z" glyph-name="itilde" horiz-adv-x="207" unicode="&#297;" /><glyph d="M103 690Q93 690 85.5 697.5Q78 705 78 715Q78 726 85.5 733Q93 740 103 740Q114 740 121 733Q128 726 128 715Q128 705 121 697.5Q114 690 103 690ZM113 517V-5Q113 -88 96.5 -138Q80 -188 37 -228H11Q58 -184 76 -136Q94 -88 94 -5V510Z" glyph-name="j" horiz-adv-x="207" unicode="j" /><glyph d="M113 517V-5Q113 -88 96.5 -138Q80 -188 37 -228H11Q58 -184 76 -136Q94 -88 94 -5V510ZM-5 612 92 791H112L210 612H193L102 770L11 612Z" glyph-name="jcircumflex" horiz-adv-x="207" unicode="&#309;" /><glyph d="M485 0H457L113 280V0H94V791L113 798V286L411 510H440L136 284Z" glyph-name="k" horiz-adv-x="507" unicode="k" /><glyph d="M485 0H457L113 280V0H94V510L113 517V286L411 510H440L136 284Z" glyph-name="kgreenlandic" horiz-adv-x="507" unicode="&#312;" /><glyph d="M113 0H94V791L113 798Z" glyph-name="l" horiz-adv-x="207" unicode="l" /><glyph d="M113 0H94V791L113 798ZM283 983 118 832H97L253 983Z" glyph-name="lacute" horiz-adv-x="207" unicode="&#314;" /><glyph d="M113 0H94V791L113 798ZM234 539H217L260 791H284Z" glyph-name="lcaron" horiz-adv-x="260" unicode="&#318;" /><glyph d="M113 0H94V791L113 798ZM246 375Q236 375 228.5 382.5Q221 390 221 400Q221 411 228.5 418Q236 425 246 425Q257 425 264 418Q271 411 271 400Q271 390 264 382.5Q257 375 246 375Z" glyph-name="ldot" horiz-adv-x="255" unicode="&#320;" /><glyph d="M521 126 38 326V348L521 548V530L56 337L521 144Z" glyph-name="less" horiz-adv-x="559" unicode="&lt;" /><glyph d="M122 409V0H103V397L-6 306V327L103 418V791L122 798V430L231 521V500Z" glyph-name="lslash" horiz-adv-x="225" unicode="&#322;" /><glyph d="M113 432V0H94V510L113 517V449Q151 479 203.5 500Q256 521 301 521Q358 521 394.5 501Q431 481 448 440Q495 477 548.5 499Q602 521 649 521Q730 521 769.5 480.5Q809 440 809 358V0H790V353Q790 434 756.5 469Q723 504 649 504Q603 504 552.5 483.5Q502 463 453 425Q457 409 459 392.5Q461 376 461 358V0H442V353Q442 434 408.5 469Q375 504 301 504Q256 504 205.5 484.5Q155 465 113 432Z" glyph-name="m" horiz-adv-x="901" unicode="m" /><glyph d="M391 688V671H125V688Z" glyph-name="macron" horiz-adv-x="517" unicode="&#175;" /><glyph d="M410 818V802H107V818Z" glyph-name="macron.cap" horiz-adv-x="517" /><glyph d="M534 320H24V338H534Z" glyph-name="minus" horiz-adv-x="559" unicode="&#8722;" /><glyph d="M498 123 485 110 279 316 73 110 61 123 267 329 61 535 73 548 279 342 485 548 498 535 292 329Z" glyph-name="multiply" horiz-adv-x="559" unicode="&#215;" /><glyph d="M94 0V510L113 517V449Q152 479 206 500Q260 521 306 521Q388 521 428.5 480.5Q469 440 469 358V0H450V353Q450 434 416 469Q382 504 306 504Q260 504 207.5 484Q155 464 113 432V0Z" glyph-name="n" horiz-adv-x="561" unicode="n" /><glyph d="M94 0V510L113 517V449Q152 479 206 500Q260 521 306 521Q388 521 428.5 480.5Q469 440 469 358V0H450V353Q450 434 416 469Q382 504 306 504Q260 504 207.5 484Q155 464 113 432V0ZM374 791 287 612H270L351 791Z" glyph-name="nacute" horiz-adv-x="561" unicode="&#324;" /><glyph d="M94 0V510L113 517V449Q152 479 206 500Q260 521 306 521Q388 521 428.5 480.5Q469 440 469 358V0H450V353Q450 434 416 469Q382 504 306 504Q260 504 207.5 484Q155 464 113 432V0ZM388 791 290 612H270L173 791H189L280 633L371 791Z" glyph-name="ncaron" horiz-adv-x="561" unicode="&#328;" /><glyph d="M247 294Q156 294 98.5 349.5Q41 405 41 497Q41 590 99.5 650.5Q158 711 248 711Q353 711 420 622Q487 533 487 393Q487 216 394 102.5Q301 -11 157 -11Q125 -11 94.5 -5Q64 1 44 11V29Q67 18 96 12.5Q125 7 157 7Q294 7 381 115Q468 223 468 393Q468 408 468 415Q468 422 467 428Q433 368 372.5 331Q312 294 247 294ZM465 449Q452 561 393.5 627Q335 693 248 693Q167 693 113.5 637.5Q60 582 60 497Q60 412 111.5 361.5Q163 311 247 311Q309 311 370.5 350.5Q432 390 465 449Z" glyph-name="nine" horiz-adv-x="532" unicode="9" /><glyph d="M247 181Q156 181 98.5 235.5Q41 290 41 380Q41 471 99.5 530.5Q158 590 248 590Q353 590 420 501Q487 412 487 272Q487 95 394 -18.5Q301 -132 157 -132Q125 -132 94.5 -126Q64 -120 44 -110V-92Q67 -103 96 -108.5Q125 -114 157 -114Q293 -114 380.5 -6Q468 102 468 272Q468 288 468 296Q468 304 467 311Q432 253 372 217Q312 181 247 181ZM465 331Q451 441 392.5 507Q334 573 248 573Q166 573 113 519Q60 465 60 380Q60 296 111.5 247Q163 198 247 198Q310 198 371 236Q432 274 465 331Z" glyph-name="nine.op" horiz-adv-x="532" /><glyph d="M94 0V510L113 517V449Q152 479 206 500Q260 521 306 521Q388 521 428.5 480.5Q469 440 469 358V0H450V353Q450 434 416 469Q382 504 306 504Q260 504 207.5 484Q155 464 113 432V0ZM358 627Q342 627 324.5 642Q307 657 274 704Q245 746 230.5 759Q216 772 204 772Q178 772 162.5 740Q147 708 137 627H121Q130 711 150 750Q170 789 205 789Q221 789 238 774Q255 759 288 712Q317 670 332 657Q347 644 359 644Q385 644 400 675.5Q415 707 425 789H442Q433 706 412.5 666.5Q392 627 358 627Z" glyph-name="ntilde" horiz-adv-x="561" unicode="&#241;" /><glyph d="M226 274H408L436 439H254ZM388 55H371L405 257H223L188 55H172L206 257H58L62 274H209L237 439H79L82 457H240L273 650H290L257 457H439L472 650H490L457 457H601L597 439H454L426 274H582L578 257H423Z" glyph-name="numbersign" horiz-adv-x="659" unicode="#" /><glyph d="M269 -11Q174 -11 110.5 64.5Q47 140 47 255Q47 370 110.5 445.5Q174 521 269 521Q364 521 427.5 445.5Q491 370 491 255Q491 140 427.5 64.5Q364 -11 269 -11ZM269 6Q356 6 414 76.5Q472 147 472 255Q472 363 414 433.5Q356 504 269 504Q182 504 124 433.5Q66 363 66 255Q66 147 124 76.5Q182 6 269 6Z" glyph-name="o" horiz-adv-x="538" unicode="o" /><glyph d="M269 -11Q174 -11 110.5 64.5Q47 140 47 255Q47 370 110.5 445.5Q174 521 269 521Q364 521 427.5 445.5Q491 370 491 255Q491 140 427.5 64.5Q364 -11 269 -11ZM269 6Q356 6 414 76.5Q472 147 472 255Q472 363 414 433.5Q356 504 269 504Q182 504 124 433.5Q66 363 66 255Q66 147 124 76.5Q182 6 269 6ZM363 791 276 612H259L340 791Z" glyph-name="oacute" horiz-adv-x="538" unicode="&#243;" /><glyph d="M269 -11Q174 -11 110.5 64.5Q47 140 47 255Q47 370 110.5 445.5Q174 521 269 521Q364 521 427.5 445.5Q491 370 491 255Q491 140 427.5 64.5Q364 -11 269 -11ZM269 6Q356 6 414 76.5Q472 147 472 255Q472 363 414 433.5Q356 504 269 504Q182 504 124 433.5Q66 363 66 255Q66 147 124 76.5Q182 6 269 6ZM269 612Q210 612 175.5 662Q141 712 141 791H157Q160 713 188.5 671.5Q217 630 269 630Q322 630 350.5 672Q379 714 381 791H398Q398 712 363.5 662Q329 612 269 612Z" glyph-name="obreve" horiz-adv-x="538" unicode="&#335;" /><glyph d="M269 -11Q174 -11 110.5 64.5Q47 140 47 255Q47 370 110.5 445.5Q174 521 269 521Q364 521 427.5 445.5Q491 370 491 255Q491 140 427.5 64.5Q364 -11 269 -11ZM269 6Q356 6 414 76.5Q472 147 472 255Q472 363 414 433.5Q356 504 269 504Q182 504 124 433.5Q66 363 66 255Q66 147 124 76.5Q182 6 269 6ZM162 612 259 791H279L377 612H360L269 770L178 612Z" glyph-name="ocircumflex" horiz-adv-x="538" unicode="&#244;" /><glyph d="M269 -11Q174 -11 110.5 64.5Q47 140 47 255Q47 370 110.5 445.5Q174 521 269 521Q364 521 427.5 445.5Q491 370 491 255Q491 140 427.5 64.5Q364 -11 269 -11ZM269 6Q356 6 414 76.5Q472 147 472 255Q472 363 414 433.5Q356 504 269 504Q182 504 124 433.5Q66 363 66 255Q66 147 124 76.5Q182 6 269 6ZM344 689Q334 689 326.5 696.5Q319 704 319 714Q319 725 326 732.5Q333 740 344 740Q355 740 362 732.5Q369 725 369 714Q369 704 362 696.5Q355 689 344 689ZM195 689Q185 689 177.5 696.5Q170 704 170 714Q170 725 177 732.5Q184 740 195 740Q205 740 212 732.5Q219 725 219 714Q219 704 212 696.5Q205 689 195 689Z" glyph-name="odieresis" horiz-adv-x="538" unicode="&#246;" /><glyph d="M269 6Q356 6 414 76.5Q472 147 472 255Q472 363 414 433.5Q356 504 269 504Q182 504 124 433.5Q66 363 66 255Q66 147 124 76.5Q182 6 269 6ZM695 504Q617 504 561 446Q505 388 493 298H859Q861 391 817.5 447.5Q774 504 695 504ZM867 46V26Q834 8 797 -1.5Q760 -11 720 -11Q636 -11 571 41.5Q506 94 483 179Q462 93 403.5 41Q345 -11 269 -11Q175 -11 111 64.5Q47 140 47 255Q47 370 110.5 445.5Q174 521 269 521Q343 521 401 470.5Q459 420 481 337Q503 421 561 471Q619 521 695 521Q786 521 833.5 457.5Q881 394 878 281H492Q491 277 491 273Q491 269 491 260Q491 152 556.5 79Q622 6 720 6Q761 6 794.5 15.5Q828 25 867 46Z" glyph-name="oe" horiz-adv-x="927" unicode="&#339;" /><glyph d="M277 -159Q277 -123 298 -85Q319 -47 375 14L382 0Q333 -55 314.5 -90Q296 -125 296 -159Q296 -189 311.5 -206Q327 -223 353 -223Q362 -223 369 -222Q376 -221 382 -219V-233Q375 -236 368 -237.5Q361 -239 353 -239Q319 -239 298 -217.5Q277 -196 277 -159Z" glyph-name="ogonek" horiz-adv-x="517" unicode="&#731;" /><glyph d="M269 -11Q174 -11 110.5 64.5Q47 140 47 255Q47 370 110.5 445.5Q174 521 269 521Q364 521 427.5 445.5Q491 370 491 255Q491 140 427.5 64.5Q364 -11 269 -11ZM269 6Q356 6 414 76.5Q472 147 472 255Q472 363 414 433.5Q356 504 269 504Q182 504 124 433.5Q66 363 66 255Q66 147 124 76.5Q182 6 269 6ZM199 791 279 612H263L175 791Z" glyph-name="ograve" horiz-adv-x="538" unicode="&#242;" /><glyph d="M269 -11Q174 -11 110.5 64.5Q47 140 47 255Q47 370 110.5 445.5Q174 521 269 521Q364 521 427.5 445.5Q491 370 491 255Q491 140 427.5 64.5Q364 -11 269 -11ZM269 6Q356 6 414 76.5Q472 147 472 255Q472 363 414 433.5Q356 504 269 504Q182 504 124 433.5Q66 363 66 255Q66 147 124 76.5Q182 6 269 6ZM340 612H324L404 791H427ZM200 612H183L263 791H287Z" glyph-name="ohungarumlaut" horiz-adv-x="538" unicode="&#337;" /><glyph d="M269 -11Q174 -11 110.5 64.5Q47 140 47 255Q47 370 110.5 445.5Q174 521 269 521Q364 521 427.5 445.5Q491 370 491 255Q491 140 427.5 64.5Q364 -11 269 -11ZM269 6Q356 6 414 76.5Q472 147 472 255Q472 363 414 433.5Q356 504 269 504Q182 504 124 433.5Q66 363 66 255Q66 147 124 76.5Q182 6 269 6ZM402 688V671H136V688Z" glyph-name="omacron" horiz-adv-x="538" unicode="&#333;" /><glyph d="M247 712V0H227V687L41 607V624L236 712Z" glyph-name="one" horiz-adv-x="384" unicode="1" /><glyph d="M246 585V0H227V559L41 479V496L236 585Z" glyph-name="one.op" horiz-adv-x="384" /><glyph d="M137 707V337H120V685L23 645V660L127 707Z" glyph-name="onesuperior" horiz-adv-x="228" unicode="&#185;" /><glyph d="M58 448Q58 417 79 399Q100 381 135 381Q164 381 191.5 391.5Q219 402 249 424V547Q153 543 105.5 518.5Q58 494 58 448ZM274 372H256L249 410Q223 388 193 376Q163 364 134 364Q93 364 66.5 387Q40 410 40 448Q40 501 92.5 529.5Q145 558 249 561V607Q249 652 226 674Q203 696 156 696Q133 696 107 687.5Q81 679 57 664V681Q76 695 103.5 703.5Q131 712 156 712Q210 712 238 686Q266 660 266 610V429Q266 422 268 407.5Q270 393 274 372ZM287 265H41V281H287Z" glyph-name="ordfeminine" horiz-adv-x="327" unicode="&#170;" /><glyph d="M40 540Q40 615 81.5 663.5Q123 712 185 712Q248 712 290 663.5Q332 615 332 540Q332 465 290 416Q248 367 185 367Q123 367 81.5 416Q40 465 40 540ZM185 697Q130 697 94 652.5Q58 608 58 540Q58 472 94 428Q130 384 185 384Q241 384 277.5 428Q314 472 314 540Q314 608 277.5 652.5Q241 697 185 697ZM62 281H309V265H62Z" glyph-name="ordmasculine" horiz-adv-x="372" unicode="&#186;" /><glyph d="M269 504Q182 504 124 433.5Q66 363 66 255Q66 201 81.5 154.5Q97 108 127 74L400 449Q373 476 339.5 490Q306 504 269 504ZM269 6Q356 6 414 76.5Q472 147 472 255Q472 309 456.5 355.5Q441 402 411 436L138 61Q165 34 198.5 20Q232 6 269 6ZM491 255Q491 140 427.5 64.5Q364 -11 269 -11Q229 -11 193 4Q157 19 127 47L85 -11H65L116 59Q83 95 65 146Q47 197 47 255Q47 370 110.5 445.5Q174 521 269 521Q309 521 345 506Q381 491 411 463L453 521H473L422 451Q455 415 473 364Q491 313 491 255Z" glyph-name="oslash" horiz-adv-x="538" unicode="&#248;" /><glyph d="M269 504Q182 504 124 433.5Q66 363 66 255Q66 201 81.5 154.5Q97 108 127 74L400 449Q373 476 339.5 490Q306 504 269 504ZM269 6Q356 6 414 76.5Q472 147 472 255Q472 309 456.5 355.5Q441 402 411 436L138 61Q165 34 198.5 20Q232 6 269 6ZM491 255Q491 140 427.5 64.5Q364 -11 269 -11Q229 -11 193 4Q157 19 127 47L85 -11H65L116 59Q83 95 65 146Q47 197 47 255Q47 370 110.5 445.5Q174 521 269 521Q309 521 345 506Q381 491 411 463L453 521H473L422 451Q455 415 473 364Q491 313 491 255ZM363 791 276 612H259L340 791Z" glyph-name="oslashacute" horiz-adv-x="538" unicode="&#511;" /><glyph d="M269 -11Q174 -11 110.5 64.5Q47 140 47 255Q47 370 110.5 445.5Q174 521 269 521Q364 521 427.5 445.5Q491 370 491 255Q491 140 427.5 64.5Q364 -11 269 -11ZM269 6Q356 6 414 76.5Q472 147 472 255Q472 363 414 433.5Q356 504 269 504Q182 504 124 433.5Q66 363 66 255Q66 147 124 76.5Q182 6 269 6ZM346 627Q330 627 312.5 642Q295 657 262 704Q233 746 218.5 759Q204 772 192 772Q166 772 150.5 740Q135 708 125 627H109Q118 711 138 750Q158 789 193 789Q209 789 226 774Q243 759 276 712Q305 670 320 657Q335 644 347 644Q373 644 388 675.5Q403 707 413 789H430Q421 706 400.5 666.5Q380 627 346 627Z" glyph-name="otilde" horiz-adv-x="538" unicode="&#245;" /><glyph d="M287 504Q243 504 197.5 485Q152 466 113 432V50Q136 29 174 17Q212 5 254 5Q359 5 425 79.5Q491 154 491 272Q491 379 435 441.5Q379 504 287 504ZM113 32V-228H94V510L113 517V449Q147 480 195 500.5Q243 521 287 521Q389 521 449.5 454.5Q510 388 510 272Q510 146 438.5 67.5Q367 -11 254 -11Q214 -11 174.5 1Q135 13 113 32Z" glyph-name="p" horiz-adv-x="557" unicode="p" /><glyph d="M330 685V69Q330 -26 307 -91Q284 -156 229 -210H206Q265 -151 288.5 -88Q312 -25 312 69V701H437V685ZM40 548Q40 614 90 657.5Q140 701 214 701H246V400H214Q139 400 89.5 441.5Q40 483 40 548Z" glyph-name="paragraph" horiz-adv-x="477" unicode="&#182;" /><glyph d="M95 334Q95 210 152.5 89.5Q210 -31 310 -122H287Q188 -28 132 91Q76 210 76 334Q76 458 132 577.5Q188 697 287 791H310Q210 700 152.5 579.5Q95 459 95 334Z" glyph-name="parenleft" horiz-adv-x="313" unicode="(" /><glyph d="M218 334Q218 459 160.5 579.5Q103 700 3 791H26Q125 697 181 577.5Q237 458 237 334Q237 210 181 91Q125 -28 26 -122H3Q103 -31 160.5 89.5Q218 210 218 334Z" glyph-name="parenright" horiz-adv-x="313" unicode=")" /><glyph d="M544 712H566L112 -11H90ZM58 574Q58 634 90 673Q122 712 172 712Q222 712 254 673Q286 634 286 574Q286 514 254 474.5Q222 435 172 435Q122 435 90 474.5Q58 514 58 574ZM172 694Q129 694 102.5 660Q76 626 76 574Q76 522 102.5 487.5Q129 453 172 453Q214 453 240.5 487.5Q267 522 267 574Q267 626 241 660Q215 694 172 694ZM598 128Q598 68 566 28.5Q534 -11 484 -11Q434 -11 402 28.5Q370 68 370 128Q370 188 402 227.5Q434 267 484 267Q534 267 566 227.5Q598 188 598 128ZM580 128Q580 180 553 214.5Q526 249 484 249Q442 249 415.5 214.5Q389 180 389 128Q389 76 415.5 41.5Q442 7 484 7Q527 7 553.5 41.5Q580 76 580 128Z" glyph-name="percent" horiz-adv-x="656" unicode="%" /><glyph d="M95 -1Q84 -1 76.5 7Q69 15 69 26Q69 38 76.5 46Q84 54 95 54Q107 54 114.5 46Q122 38 122 26Q122 14 114.5 6.5Q107 -1 95 -1Z" glyph-name="period" horiz-adv-x="190" unicode="." /><glyph d="M93 247Q82 247 74.5 255Q67 263 67 274Q67 286 74.5 294Q82 302 93 302Q105 302 112.5 294Q120 286 120 274Q120 262 112.5 254.5Q105 247 93 247Z" glyph-name="periodcentered" horiz-adv-x="187" unicode="&#183;" /><glyph d="M534 338V320H288V74H270V320H24V338H270V584H288V338Z" glyph-name="plus" horiz-adv-x="559" unicode="+" /><glyph d="M444 499 463 510V-228H444V61Q410 30 362 9.5Q314 -11 270 -11Q169 -11 108 56.5Q47 124 47 239Q47 362 124.5 441.5Q202 521 318 521Q348 521 377.5 516Q407 511 444 499ZM270 6Q314 6 360 25Q406 44 444 78V482Q412 494 382 499.5Q352 505 318 505Q210 505 138 429.5Q66 354 66 239Q66 132 122 69Q178 6 270 6Z" glyph-name="q" horiz-adv-x="557" unicode="q" /><glyph d="M307 379Q358 436 373.5 468.5Q389 501 389 534Q389 606 343.5 649.5Q298 693 220 693Q169 693 115.5 667.5Q62 642 31 602V628Q64 665 116.5 688Q169 711 220 711Q305 711 356.5 662Q408 613 408 534Q408 498 391 463Q374 428 320 368Q272 314 256.5 284.5Q241 255 239 225H220Q224 259 241 291Q258 323 307 379ZM228 -1Q217 -1 209.5 7Q202 15 202 26Q202 38 209.5 46Q217 54 228 54Q240 54 247.5 46Q255 38 255 26Q255 14 247.5 6.5Q240 -1 228 -1Z" glyph-name="question" horiz-adv-x="438" unicode="?" /><glyph d="M131 321Q80 264 64.5 231.5Q49 199 49 166Q49 94 94.5 50.5Q140 7 218 7Q269 7 322.5 32.5Q376 58 407 98V72Q374 35 321.5 12Q269 -11 218 -11Q133 -11 81.5 38Q30 87 30 166Q30 202 47 237Q64 272 118 332Q166 386 181.5 415.5Q197 445 199 475H218Q214 441 197 409Q180 377 131 321ZM210 701Q221 701 228.5 693Q236 685 236 674Q236 662 228.5 654Q221 646 210 646Q198 646 190.5 654Q183 662 183 674Q183 686 190.5 693.5Q198 701 210 701Z" glyph-name="questiondown" horiz-adv-x="438" unicode="&#191;" /><glyph d="M208 451H195V701H218ZM71 451H58V701H81Z" glyph-name="quotedbl" horiz-adv-x="275" unicode="&quot;" /><glyph d="M105 93H127Q127 38 106.5 -22Q86 -82 56 -124H40Q73 -68 89 -14Q105 40 105 93ZM235 93H257Q257 38 236.5 -22Q216 -82 186 -124H170Q203 -68 219 -14Q235 40 235 93Z" glyph-name="quotedblbase" horiz-adv-x="333" unicode="&#8222;" /><glyph d="M228 496H206Q206 552 226.5 612Q247 672 277 712H294Q261 657 244.5 603Q228 549 228 496ZM98 496H76Q76 552 96.5 612Q117 672 147 712H164Q131 657 114.5 603Q98 549 98 496Z" glyph-name="quotedblleft" horiz-adv-x="333" unicode="&#8220;" /><glyph d="M105 712H127Q127 656 106.5 596Q86 536 56 496H40Q73 553 89 606.5Q105 660 105 712ZM235 712H257Q257 656 236.5 596Q216 536 186 496H170Q203 553 219 606.5Q235 660 235 712Z" glyph-name="quotedblright" horiz-adv-x="333" unicode="&#8221;" /><glyph d="M98 496H76Q76 552 96.5 612Q117 672 147 712H164Q131 657 114.5 603Q98 549 98 496Z" glyph-name="quoteleft" horiz-adv-x="203" unicode="&#8216;" /><glyph d="M105 712H127Q127 656 106.5 596Q86 536 56 496H40Q73 553 89 606.5Q105 660 105 712Z" glyph-name="quoteright" horiz-adv-x="203" unicode="&#8217;" /><glyph d="M105 93H127Q127 38 106.5 -22Q86 -82 56 -124H40Q73 -68 89 -14Q105 40 105 93Z" glyph-name="quotesinglbase" horiz-adv-x="203" unicode="&#8218;" /><glyph d="M71 451H58V701H81Z" glyph-name="quotesingle" horiz-adv-x="139" unicode="'" /><glyph d="M113 399V0H94V510L113 517V417Q154 472 214 500Q274 528 336 518V501Q276 510 219 484Q162 458 113 399Z" glyph-name="r" horiz-adv-x="348" unicode="r" /><glyph d="M113 399V0H94V510L113 517V417Q154 472 214 500Q274 528 336 518V501Q276 510 219 484Q162 458 113 399ZM306 791 219 612H202L283 791Z" glyph-name="racute" horiz-adv-x="348" unicode="&#341;" /><glyph d="M113 399V0H94V510L113 517V417Q154 472 214 500Q274 528 336 518V501Q276 510 219 484Q162 458 113 399ZM308 791 210 612H190L93 791H109L200 633L291 791Z" glyph-name="rcaron" horiz-adv-x="348" unicode="&#345;" /><glyph d="M31 351Q31 505 135 608.5Q239 712 392 712Q545 712 648.5 609Q752 506 752 351Q752 196 648.5 92.5Q545 -11 392 -11Q239 -11 135 92.5Q31 196 31 351ZM49 351Q49 204 148 105.5Q247 7 392 7Q537 7 635.5 105.5Q734 204 734 351Q734 498 635.5 596Q537 694 392 694Q247 694 148 595.5Q49 497 49 351ZM362 536H293V362H410Q443 371 465.5 395.5Q488 420 488 450Q488 494 457.5 515Q427 536 362 536ZM417 348Q439 308 477.5 257Q516 206 556 165H533Q500 198 464.5 246Q429 294 398 345H293V165H275V552H367Q435 552 470 526Q505 500 505 450Q506 416 481.5 388.5Q457 361 417 348Z" glyph-name="registered" horiz-adv-x="783" unicode="&#174;" /><glyph d="M238 790Q276 790 303 763.5Q330 737 330 699Q330 661 303 634Q276 607 238 607Q200 607 173.5 634Q147 661 147 699Q147 737 174 763.5Q201 790 238 790ZM238 773Q207 773 185.5 751.5Q164 730 164 699Q164 667 185.5 645Q207 623 238 623Q269 623 291 645Q313 667 313 699Q313 730 291 751.5Q269 773 238 773Z" glyph-name="ring" horiz-adv-x="517" unicode="&#730;" /><glyph d="M350 830Q350 792 323 765Q296 738 258 738Q220 738 193 765Q166 792 166 830Q166 868 193 894.5Q220 921 258 921Q296 921 323 894Q350 867 350 830ZM184 830Q184 798 205.5 776Q227 754 258 754Q289 754 311 776.5Q333 799 333 830Q333 861 311 883Q289 905 258 905Q227 905 205.5 883Q184 861 184 830Z" glyph-name="ring.cap" horiz-adv-x="517" /><glyph d="M187 -11Q138 -11 98 -0.5Q58 10 28 31V53Q62 29 100 17.5Q138 6 187 6Q255 6 301 40.5Q347 75 347 131Q347 169 321.5 196Q296 223 212 255Q124 289 96.5 318.5Q69 348 69 390Q69 446 115.5 483.5Q162 521 231 521Q260 521 286 515.5Q312 510 338 498V477Q313 490 286.5 497Q260 504 231 504Q169 504 128.5 471.5Q88 439 88 390Q88 354 113 328Q138 302 220 271Q310 236 338 205.5Q366 175 366 131Q366 68 314.5 28.5Q263 -11 187 -11Z" glyph-name="s" horiz-adv-x="425" unicode="s" /><glyph d="M187 -11Q138 -11 98 -0.5Q58 10 28 31V53Q62 29 100 17.5Q138 6 187 6Q255 6 301 40.5Q347 75 347 131Q347 169 321.5 196Q296 223 212 255Q124 289 96.5 318.5Q69 348 69 390Q69 446 115.5 483.5Q162 521 231 521Q260 521 286 515.5Q312 510 338 498V477Q313 490 286.5 497Q260 504 231 504Q169 504 128.5 471.5Q88 439 88 390Q88 354 113 328Q138 302 220 271Q310 236 338 205.5Q366 175 366 131Q366 68 314.5 28.5Q263 -11 187 -11ZM324 791 237 612H220L301 791Z" glyph-name="sacute" horiz-adv-x="425" unicode="&#347;" /><glyph d="M187 -11Q138 -11 98 -0.5Q58 10 28 31V53Q62 29 100 17.5Q138 6 187 6Q255 6 301 40.5Q347 75 347 131Q347 169 321.5 196Q296 223 212 255Q124 289 96.5 318.5Q69 348 69 390Q69 446 115.5 483.5Q162 521 231 521Q260 521 286 515.5Q312 510 338 498V477Q313 490 286.5 497Q260 504 231 504Q169 504 128.5 471.5Q88 439 88 390Q88 354 113 328Q138 302 220 271Q310 236 338 205.5Q366 175 366 131Q366 68 314.5 28.5Q263 -11 187 -11ZM338 791 240 612H220L123 791H139L230 633L321 791Z" glyph-name="scaron" horiz-adv-x="425" unicode="&#353;" /><glyph d="M187 -11Q138 -11 98 -0.5Q58 10 28 31V53Q62 29 100 17.5Q138 6 187 6Q255 6 301 40.5Q347 75 347 131Q347 169 321.5 196Q296 223 212 255Q124 289 96.5 318.5Q69 348 69 390Q69 446 115.5 483.5Q162 521 231 521Q260 521 286 515.5Q312 510 338 498V477Q313 490 286.5 497Q260 504 231 504Q169 504 128.5 471.5Q88 439 88 390Q88 354 113 328Q138 302 220 271Q310 236 338 205.5Q366 175 366 131Q366 68 314.5 28.5Q263 -11 187 -11ZM123 612 220 791H240L338 612H321L230 770L139 612Z" glyph-name="scircumflex" horiz-adv-x="425" unicode="&#349;" /><glyph d="M267 696Q202 696 157.5 654.5Q113 613 113 556Q113 521 127 494.5Q141 468 184 434L358 295Q383 275 398.5 262Q414 249 419 244Q435 227 442.5 209.5Q450 192 450 173Q450 155 442.5 140.5Q435 126 420 113L411 124Q421 133 425.5 144.5Q430 156 430 173Q430 196 416 216.5Q402 237 349 279L171 422Q127 457 110.5 486.5Q94 516 94 556Q94 621 144.5 666.5Q195 712 267 712Q300 712 330 704Q360 696 388 679V656Q362 675 331 685.5Q300 696 267 696ZM231 -157Q296 -157 341 -115Q386 -73 386 -16Q386 19 372 45.5Q358 72 315 106L141 244Q116 264 101 277Q86 290 80 296Q64 313 56.5 330Q49 347 49 366Q49 384 56 399Q63 414 78 426L87 415Q77 406 72.5 394Q68 382 68 366Q68 344 80.5 325Q93 306 149 261L328 118Q371 83 387.5 53.5Q404 24 404 -16Q404 -81 354 -127Q304 -173 231 -173Q199 -173 168.5 -164.5Q138 -156 111 -139V-117Q136 -136 167 -146.5Q198 -157 231 -157Z" glyph-name="section" horiz-adv-x="498" unicode="&#167;" /><glyph d="M95 387Q84 387 76.5 395Q69 403 69 414Q69 426 76.5 434Q84 442 95 442Q107 442 114.5 434Q122 426 122 414Q122 402 114.5 394.5Q107 387 95 387ZM83 104H109Q109 50 94 -1Q79 -52 52 -94H31Q56 -55 69.5 -3.5Q83 48 83 104Z" glyph-name="semicolon" horiz-adv-x="190" unicode=";" /><glyph d="M153 0H130Q231 120 328 316Q425 512 466 683H33V700H482V683Q446 517 349.5 318Q253 119 153 0Z" glyph-name="seven" horiz-adv-x="495" unicode="7" /><glyph d="M153 -122H130Q229 -5 326.5 193Q424 391 466 562H33V579H482V562Q447 397 350 197Q253 -3 153 -122Z" glyph-name="seven.op" horiz-adv-x="495" /><glyph d="M285 406Q376 406 433.5 350.5Q491 295 491 203Q491 110 432.5 49.5Q374 -11 284 -11Q179 -11 112 78Q45 167 45 307Q45 484 138 597.5Q231 711 375 711Q407 711 437.5 705Q468 699 488 689V671Q465 682 436 687.5Q407 693 375 693Q238 693 151 585Q64 477 64 307Q64 292 64 285Q64 278 65 272Q99 332 159.5 369Q220 406 285 406ZM67 251Q80 139 138.5 73Q197 7 284 7Q365 7 418.5 62.5Q472 118 472 203Q472 288 420.5 338.5Q369 389 285 389Q223 389 161.5 349.5Q100 310 67 251Z" glyph-name="six" horiz-adv-x="532" unicode="6" /><glyph d="M285 398Q376 398 433.5 343.5Q491 289 491 199Q491 108 432.5 48.5Q374 -11 284 -11Q179 -11 112 78Q45 167 45 307Q45 484 138 597.5Q231 711 375 711Q407 711 437.5 705Q468 699 488 689V671Q465 682 436 687.5Q407 693 375 693Q239 693 151.5 585Q64 477 64 307Q64 291 64 283Q64 275 65 268Q100 326 160 362Q220 398 285 398ZM67 248Q81 138 139.5 72Q198 6 284 6Q366 6 419 60Q472 114 472 199Q472 283 420.5 332Q369 381 285 381Q222 381 161 343Q100 305 67 248Z" glyph-name="six.op" horiz-adv-x="532" /><glyph d="M23 -122H3L310 791H331Z" glyph-name="slash" horiz-adv-x="334" unicode="/" /><glyph glyph-name="space" horiz-adv-x="243" unicode=" " /><glyph d="M455 438 449 422H96L103 438H202Q258 586 317 648.5Q376 711 454 711Q484 711 505 706.5Q526 702 548 690V669Q521 683 501 688.5Q481 694 454 694Q384 694 328 634Q272 574 220 438ZM60 16H508V0H40V12L152 292H47L53 308H419L412 292H170Z" glyph-name="sterling" horiz-adv-x="576" unicode="&#163;" /><glyph d="M11 494V510H95V624L114 632V510H316L310 494H114V110Q114 58 142 32Q170 6 228 6Q254 6 280 11.5Q306 17 337 30V13Q312 2 283.5 -4.5Q255 -11 228 -11Q163 -11 129 19.5Q95 50 95 109V494Z" glyph-name="t" horiz-adv-x="362" unicode="t" /><glyph d="M337 30V13Q312 2 283.5 -4.5Q255 -11 228 -11Q163 -11 129 19.5Q95 50 95 109V294H11V310H95V494H11V510H95V624L113 632V510H316L310 494H113V310H316L310 294H113V110Q113 58 141.5 32Q170 6 228 6Q254 6 280 11.5Q306 17 337 30Z" glyph-name="tbar" horiz-adv-x="362" unicode="&#359;" /><glyph d="M11 494V510H95V624L114 632V510H316L310 494H114V110Q114 58 142 32Q170 6 228 6Q254 6 280 11.5Q306 17 337 30V13Q312 2 283.5 -4.5Q255 -11 228 -11Q163 -11 129 19.5Q95 50 95 109V494ZM201 585H184L227 837H251Z" glyph-name="tcaron" horiz-adv-x="362" unicode="&#357;" /><glyph d="M284 -145Q284 -186 248.5 -212.5Q213 -239 163 -239Q133 -239 108 -233Q83 -227 63 -215V-194Q86 -209 108 -215.5Q130 -222 163 -222Q206 -222 235.5 -201Q265 -180 265 -145Q265 -113 235.5 -95Q206 -77 155 -77L176 -5Q148 2 129 19Q95 50 95 109V494H11V510H95V624L114 632V510H316L310 494H114V110Q114 58 142 32Q170 6 228 6Q254 6 280 11.5Q306 17 337 30V13Q312 2 283.5 -4.5Q255 -11 228 -11Q208 -11 191 -8L176 -61Q225 -65 254.5 -87.5Q284 -110 284 -145Z" glyph-name="tcommaaccent" horiz-adv-x="362" unicode="&#355;" /><glyph d="M287 504Q243 504 197.5 485Q152 466 113 432V50Q136 29 174 17Q212 5 254 5Q359 5 425 79.5Q491 154 491 272Q491 379 435 441.5Q379 504 287 504ZM254 -11Q214 -11 174.5 1Q135 13 113 32V-228H94V791L113 798V449Q147 480 195 500.5Q243 521 287 521Q389 521 449.5 454.5Q510 388 510 272Q510 146 438.5 67.5Q367 -11 254 -11Z" glyph-name="thorn" horiz-adv-x="557" unicode="&#254;" /><glyph d="M199 -11Q145 -11 100.5 2.5Q56 16 19 43V67Q55 37 99.5 22Q144 7 199 7Q302 7 370 67Q438 127 438 220Q438 300 369 347.5Q300 395 179 400V412L399 683H57V700H421V685L202 415Q324 405 390.5 354.5Q457 304 457 220Q457 119 384 54Q311 -11 199 -11Z" glyph-name="three" horiz-adv-x="509" unicode="3" /><glyph d="M199 -133Q145 -133 100.5 -119.5Q56 -106 19 -79V-56Q55 -86 100 -100.5Q145 -115 199 -115Q302 -115 370 -55.5Q438 4 438 97Q438 177 369.5 224.5Q301 272 179 278V290L399 562H57V579H421V564L202 293Q324 283 390.5 232.5Q457 182 457 97Q457 -3 384 -68Q311 -133 199 -133Z" glyph-name="three.op" horiz-adv-x="509" /><glyph d="M105 332Q78 332 54.5 338.5Q31 345 11 359V378Q30 363 53 355.5Q76 348 105 348Q157 348 190.5 376.5Q224 405 224 450Q224 491 190 514Q156 537 92 539V548L204 685H30V701H224V686L115 553Q174 549 208 522.5Q242 496 242 452Q242 400 203 366Q164 332 105 332Z" glyph-name="threesuperior" horiz-adv-x="274" unicode="&#179;" /><glyph d="M335 627Q319 627 301.5 642Q284 657 251 704Q222 746 207.5 759Q193 772 181 772Q155 772 139.5 740Q124 708 114 627H98Q107 711 127 750Q147 789 182 789Q198 789 215 774Q232 759 265 712Q294 670 309 657Q324 644 336 644Q362 644 377 675.5Q392 707 402 789H419Q410 706 389.5 666.5Q369 627 335 627Z" glyph-name="tilde" horiz-adv-x="517" unicode="&#732;" /><glyph d="M335 776Q319 776 301.5 791Q284 806 251 853Q222 895 207.5 908Q193 921 181 921Q155 921 139.5 889Q124 857 114 776H98Q107 860 127 899Q147 938 182 938Q198 938 215 923Q232 908 265 861Q294 819 309 806Q324 793 336 793Q362 793 377 824.5Q392 856 402 938H419Q410 855 389.5 815.5Q369 776 335 776Z" glyph-name="tilde.cap" horiz-adv-x="517" /><glyph d="M160 685V375H142V685H34V701H267V685ZM556 681 471 460H458L372 681H370L335 375H318L356 701H381L463 493H465L547 701H573L611 375H594L558 681Z" glyph-name="trademark" horiz-adv-x="667" unicode="&#8482;" /><glyph d="M415 519Q415 599 365 646.5Q315 694 229 694Q178 694 126.5 668.5Q75 643 46 603V629Q77 666 127.5 689Q178 712 229 712Q323 712 379 659Q435 606 435 519Q435 420 346.5 299Q258 178 60 17H458V0H30V13Q251 198 333 311Q415 424 415 519Z" glyph-name="two" horiz-adv-x="497" unicode="2" /><glyph d="M260 174Q335 236 370.5 292.5Q406 349 406 404Q406 483 357.5 528Q309 573 222 573Q171 573 121 547.5Q71 522 41 481V507Q73 545 122 568Q171 591 222 591Q317 591 371 540.5Q425 490 425 404Q425 350 391 293.5Q357 237 287 176Q253 146 208 113Q163 80 65 17H458V0H30V13Q152 93 191 121Q230 149 260 174Z" glyph-name="two.op" horiz-adv-x="497" /><glyph d="M214 607Q214 646 189.5 668.5Q165 691 123 691Q97 691 70.5 678Q44 665 26 644V664Q43 683 69.5 695Q96 707 123 707Q173 707 202 679.5Q231 652 231 606Q231 555 183 491Q135 427 42 353H244V337H16V349Q127 443 170.5 501.5Q214 560 214 607Z" glyph-name="twosuperior" horiz-adv-x="267" unicode="&#178;" /><glyph d="M440 510H459V0L440 -7V61Q402 31 349.5 10Q297 -11 252 -11Q171 -11 131.5 29.5Q92 70 92 152V510H111V157Q111 76 144.5 41Q178 6 252 6Q297 6 347.5 25.5Q398 45 440 78Z" glyph-name="u" horiz-adv-x="553" unicode="u" /><glyph d="M440 510H459V0L440 -7V61Q402 31 349.5 10Q297 -11 252 -11Q171 -11 131.5 29.5Q92 70 92 152V510H111V157Q111 76 144.5 41Q178 6 252 6Q297 6 347.5 25.5Q398 45 440 78ZM369 791 282 612H265L346 791Z" glyph-name="uacute" horiz-adv-x="553" unicode="&#250;" /><glyph d="M440 510H459V0L440 -7V61Q402 31 349.5 10Q297 -11 252 -11Q171 -11 131.5 29.5Q92 70 92 152V510H111V157Q111 76 144.5 41Q178 6 252 6Q297 6 347.5 25.5Q398 45 440 78ZM275 612Q216 612 181.5 662Q147 712 147 791H163Q166 713 194.5 671.5Q223 630 275 630Q328 630 356.5 672Q385 714 387 791H404Q404 712 369.5 662Q335 612 275 612Z" glyph-name="ubreve" horiz-adv-x="553" unicode="&#365;" /><glyph d="M440 510H459V0L440 -7V61Q402 31 349.5 10Q297 -11 252 -11Q171 -11 131.5 29.5Q92 70 92 152V510H111V157Q111 76 144.5 41Q178 6 252 6Q297 6 347.5 25.5Q398 45 440 78ZM168 612 265 791H285L383 612H366L275 770L184 612Z" glyph-name="ucircumflex" horiz-adv-x="553" unicode="&#251;" /><glyph d="M440 510H459V0L440 -7V61Q402 31 349.5 10Q297 -11 252 -11Q171 -11 131.5 29.5Q92 70 92 152V510H111V157Q111 76 144.5 41Q178 6 252 6Q297 6 347.5 25.5Q398 45 440 78ZM350 689Q340 689 332.5 696.5Q325 704 325 714Q325 725 332 732.5Q339 740 350 740Q361 740 368 732.5Q375 725 375 714Q375 704 368 696.5Q361 689 350 689ZM201 689Q191 689 183.5 696.5Q176 704 176 714Q176 725 183 732.5Q190 740 201 740Q211 740 218 732.5Q225 725 225 714Q225 704 218 696.5Q211 689 201 689Z" glyph-name="udieresis" horiz-adv-x="553" unicode="&#252;" /><glyph d="M440 510H459V0L440 -7V61Q402 31 349.5 10Q297 -11 252 -11Q171 -11 131.5 29.5Q92 70 92 152V510H111V157Q111 76 144.5 41Q178 6 252 6Q297 6 347.5 25.5Q398 45 440 78ZM205 791 285 612H269L181 791Z" glyph-name="ugrave" horiz-adv-x="553" unicode="&#249;" /><glyph d="M440 510H459V0L440 -7V61Q402 31 349.5 10Q297 -11 252 -11Q171 -11 131.5 29.5Q92 70 92 152V510H111V157Q111 76 144.5 41Q178 6 252 6Q297 6 347.5 25.5Q398 45 440 78ZM347 612H331L411 791H434ZM207 612H190L270 791H294Z" glyph-name="uhungarumlaut" horiz-adv-x="553" unicode="&#369;" /><glyph d="M440 510H459V0L440 -7V61Q402 31 349.5 10Q297 -11 252 -11Q171 -11 131.5 29.5Q92 70 92 152V510H111V157Q111 76 144.5 41Q178 6 252 6Q297 6 347.5 25.5Q398 45 440 78ZM408 688V671H142V688Z" glyph-name="umacron" horiz-adv-x="553" unicode="&#363;" /><glyph d="M327 -96H67V-80H327Z" glyph-name="underscore" horiz-adv-x="394" unicode="_" /><glyph glyph-name="uni000D" horiz-adv-x="243" unicode="" /><glyph d="M205 -50H225Q225 -102 212 -143.5Q199 -185 167 -228H149Q179 -187 192 -145.5Q205 -104 205 -50Z" glyph-name="uni00200326" horiz-adv-x="425" /><glyph d="M200 613H180Q180 666 193 707.5Q206 749 237 791H256Q226 750 213 708.5Q200 667 200 613Z" glyph-name="uni00200326.alt" horiz-adv-x="425" /><glyph glyph-name="uni00A0" horiz-adv-x="243" unicode="&#160;" /><glyph d="M424 694Q354 694 288.5 669.5Q223 645 175 599Q124 553 98 490Q72 427 72 353Q72 198 173 102.5Q274 7 425 7Q463 7 497.5 11Q532 15 573 24V296H592V10Q544 -1 506 -6Q468 -11 425 -11Q265 -11 158.5 90Q52 191 52 353Q52 430 80 496.5Q108 563 161 612Q213 660 281.5 686Q350 712 424 712Q468 712 512 704.5Q556 697 593 683V663Q556 678 512.5 686Q469 694 424 694ZM398 -50H418Q418 -102 405 -143.5Q392 -185 360 -228H342Q372 -187 385 -145.5Q398 -104 398 -50Z" glyph-name="uni0122" horiz-adv-x="653" unicode="&#290;" /><glyph d="M235 194Q302 194 347.5 238Q393 282 393 349Q393 416 347.5 460Q302 504 235 504Q167 504 121.5 460Q76 416 76 349Q76 282 121.5 238Q167 194 235 194ZM479 -72Q479 -144 406 -191.5Q333 -239 236 -239Q138 -239 75.5 -198.5Q13 -158 13 -95Q13 -45 54 -8Q95 29 169 48Q148 56 136 71.5Q124 87 124 106Q124 128 140 146.5Q156 165 190 182Q131 197 94 242.5Q57 288 57 349Q57 422 109 471.5Q161 521 235 521Q251 521 266.5 518.5Q282 516 298 510H485L479 494H331Q369 470 390.5 432Q412 394 412 349Q412 276 360.5 226.5Q309 177 235 177Q225 177 220.5 177Q216 177 212 178Q178 165 160.5 146.5Q143 128 143 107Q143 86 159 73.5Q175 61 209 56L305 44Q410 29 444.5 2.5Q479 -24 479 -72ZM32 -95Q32 -151 89 -186.5Q146 -222 236 -222Q327 -222 393.5 -180Q460 -138 460 -72Q460 -32 428.5 -9Q397 14 307 26L205 40Q132 31 82 -7Q32 -45 32 -95ZM256 613H236Q236 666 249 707.5Q262 749 293 791H312Q282 750 269 708.5Q256 667 256 613Z" glyph-name="uni0123" horiz-adv-x="496" unicode="&#291;" /><glyph d="M604 0H574L133 352V0H113V700H133V365L517 700H545L154 360ZM302 -50H322Q322 -102 309 -143.5Q296 -185 264 -228H246Q276 -187 289 -145.5Q302 -104 302 -50Z" glyph-name="uni0136" horiz-adv-x="630" unicode="&#310;" /><glyph d="M485 0H457L113 280V0H94V791L113 798V286L411 510H440L136 284ZM247 -50H267Q267 -102 254 -143.5Q241 -185 209 -228H191Q221 -187 234 -145.5Q247 -104 247 -50Z" glyph-name="uni0137" horiz-adv-x="507" unicode="&#311;" /><glyph d="M113 0V700H133V17H512V0ZM302 -50H322Q322 -102 309 -143.5Q296 -185 264 -228H246Q276 -187 289 -145.5Q302 -104 302 -50Z" glyph-name="uni013B" horiz-adv-x="531" unicode="&#315;" /><glyph d="M113 0H94V791L113 798ZM93 -50H113Q113 -102 100 -143.5Q87 -185 55 -228H37Q67 -187 80 -145.5Q93 -104 93 -50Z" glyph-name="uni013C" horiz-adv-x="207" unicode="&#316;" /><glyph d="M627 0H610L132 681V0H113V701H139L608 34V701H627ZM359 -50H379Q379 -102 366 -143.5Q353 -185 321 -228H303Q333 -187 346 -145.5Q359 -104 359 -50Z" glyph-name="uni0145" horiz-adv-x="740" unicode="&#325;" /><glyph d="M94 0V510L113 517V449Q152 479 206 500Q260 521 306 521Q388 521 428.5 480.5Q469 440 469 358V0H450V353Q450 434 416 469Q382 504 306 504Q260 504 207.5 484Q155 464 113 432V0ZM271 -50H291Q291 -102 278 -143.5Q265 -185 233 -228H215Q245 -187 258 -145.5Q271 -104 271 -50Z" glyph-name="uni0146" horiz-adv-x="561" unicode="&#326;" /><glyph d="M281 683H133V343H359Q426 357 467.5 403.5Q509 450 509 516Q509 600 452 641.5Q395 683 281 683ZM373 328Q415 253 484.5 162Q554 71 623 0H598Q537 62 471.5 149Q406 236 352 326H133V0H113V700H280Q403 700 466 653.5Q529 607 529 516Q529 449 487 399Q445 349 373 328ZM292 -50H312Q312 -102 299 -143.5Q286 -185 254 -228H236Q266 -187 279 -145.5Q292 -104 292 -50Z" glyph-name="uni0156" horiz-adv-x="635" unicode="&#342;" /><glyph d="M113 399V0H94V510L113 517V417Q154 472 214 500Q274 528 336 518V501Q276 510 219 484Q162 458 113 399ZM93 -50H113Q113 -102 100 -143.5Q87 -185 55 -228H37Q67 -187 80 -145.5Q93 -104 93 -50Z" glyph-name="uni0157" horiz-adv-x="348" unicode="&#343;" /><glyph d="M307 -145Q307 -186 271.5 -212.5Q236 -239 186 -239Q156 -239 131 -233Q106 -227 86 -215V-194Q109 -209 131 -215.5Q153 -222 186 -222Q229 -222 258.5 -201Q288 -180 288 -145Q288 -113 258.5 -95Q229 -77 178 -77L198 -10Q149 -7 104 6Q47 24 10 56V78Q53 43 108 25Q163 7 226 7Q318 7 379.5 54Q441 101 441 173Q441 209 426 237.5Q411 266 380 290Q362 303 337 316Q312 329 258 352Q201 376 175.5 390Q150 404 131 418Q99 442 84 472.5Q69 503 69 540Q69 615 128.5 663Q188 711 273 711Q316 711 352 703.5Q388 696 426 679V657Q389 676 353.5 684.5Q318 693 273 693Q196 693 142.5 650Q89 607 89 540Q89 506 103.5 478.5Q118 451 149 429Q166 416 190 403.5Q214 391 267 369Q325 345 352 330.5Q379 316 398 301Q430 275 445.5 243.5Q461 212 461 173Q461 93 393 41Q325 -11 226 -11H213L199 -61Q248 -65 277.5 -87.5Q307 -110 307 -145Z" glyph-name="uni015E" horiz-adv-x="509" unicode="&#350;" /><glyph d="M268 -150Q268 -191 232.5 -217.5Q197 -244 147 -244Q117 -244 92 -238Q67 -232 47 -220V-199Q70 -214 92 -220.5Q114 -227 147 -227Q190 -227 219.5 -206Q249 -185 249 -150Q249 -118 219.5 -100Q190 -82 139 -82L160 -10Q127 -8 98 0Q58 10 28 31V53Q62 29 100 17.5Q138 6 187 6Q255 6 301 40.5Q347 75 347 131Q347 169 321.5 196Q296 223 212 255Q124 289 96.5 318.5Q69 348 69 390Q69 446 115.5 483.5Q162 521 231 521Q260 521 286 515.5Q312 510 338 498V477Q313 490 286.5 497Q260 504 231 504Q169 504 128.5 471.5Q88 439 88 390Q88 354 113 328Q138 302 220 271Q310 236 338 205.5Q366 175 366 131Q366 68 314.5 28.5Q263 -11 187 -11H176L160 -66Q209 -70 238.5 -92.5Q268 -115 268 -150Z" glyph-name="uni015F" horiz-adv-x="425" unicode="&#351;" /><glyph d="M463 384 458 368H104L112 384H248L266 468Q293 598 342.5 654.5Q392 711 475 711Q495 711 512.5 708Q530 705 544 700V683Q523 690 507.5 692.5Q492 695 475 695Q401 695 356.5 642.5Q312 590 285 468L266 384ZM201 130 228 257H246L219 130Q190 -1 141.5 -57Q93 -113 11 -113Q-7 -113 -25.5 -110Q-44 -107 -59 -101V-85Q-38 -92 -22 -94.5Q-6 -97 11 -97Q84 -97 129 -44Q174 9 201 130Z" glyph-name="uni0192" horiz-adv-x="556" unicode="&#402;" /><glyph d="M226 -11Q162 -11 104.5 6.5Q47 24 10 56V78Q53 43 108 25Q163 7 226 7Q318 7 379.5 54Q441 101 441 173Q441 209 426 237.5Q411 266 380 290Q362 303 337 316Q312 329 258 352Q201 376 175.5 390Q150 404 131 418Q99 442 84 472.5Q69 503 69 540Q69 615 128.5 663Q188 711 273 711Q316 711 352 703.5Q388 696 426 679V657Q389 676 353.5 684.5Q318 693 273 693Q196 693 142.5 650Q89 607 89 540Q89 506 103.5 478.5Q118 451 149 429Q166 416 190 403.5Q214 391 267 369Q325 345 352 330.5Q379 316 398 301Q430 275 445.5 243.5Q461 212 461 173Q461 93 393 41Q325 -11 226 -11ZM222 -50H242Q242 -102 229 -143.5Q216 -185 184 -228H166Q196 -187 209 -145.5Q222 -104 222 -50Z" glyph-name="uni0218" horiz-adv-x="509" unicode="&#536;" /><glyph d="M187 -11Q138 -11 98 -0.5Q58 10 28 31V53Q62 29 100 17.5Q138 6 187 6Q255 6 301 40.5Q347 75 347 131Q347 169 321.5 196Q296 223 212 255Q124 289 96.5 318.5Q69 348 69 390Q69 446 115.5 483.5Q162 521 231 521Q260 521 286 515.5Q312 510 338 498V477Q313 490 286.5 497Q260 504 231 504Q169 504 128.5 471.5Q88 439 88 390Q88 354 113 328Q138 302 220 271Q310 236 338 205.5Q366 175 366 131Q366 68 314.5 28.5Q263 -11 187 -11ZM183 -50H203Q203 -102 190 -143.5Q177 -185 145 -228H127Q157 -187 170 -145.5Q183 -104 183 -50Z" glyph-name="uni0219" horiz-adv-x="425" unicode="&#537;" /><glyph d="M310 683H20V700H620V683H330V0H310ZM310 -50H330Q330 -102 317 -143.5Q304 -185 272 -228H254Q284 -187 297 -145.5Q310 -104 310 -50Z" glyph-name="uni021A" horiz-adv-x="640" unicode="&#538;" /><glyph d="M11 494V510H95V624L114 632V510H316L310 494H114V110Q114 58 142 32Q170 6 228 6Q254 6 280 11.5Q306 17 337 30V13Q312 2 283.5 -4.5Q255 -11 228 -11Q163 -11 129 19.5Q95 50 95 109V494ZM218 -50H238Q238 -102 225 -143.5Q212 -185 180 -228H162Q192 -187 205 -145.5Q218 -104 218 -50Z" glyph-name="uni021B" horiz-adv-x="362" unicode="&#539;" /><glyph d="M113 517V-5Q113 -88 96.5 -138Q80 -188 37 -228H11Q58 -184 76 -136Q94 -88 94 -5V510Z" glyph-name="uni0237" horiz-adv-x="207" unicode="&#567;" /><glyph d="M278 602H129V362H284Q374 362 422.5 393.5Q471 425 471 485Q471 542 421.5 572Q372 602 278 602ZM515 215Q515 280 463.5 313Q412 346 311 346H129V87H311Q413 87 464 119Q515 151 515 215ZM534 216Q534 145 476.5 107.5Q419 70 311 70H304V-77H285V70H110V619H279H285V773H304V618Q393 614 441.5 579.5Q490 545 490 485Q490 436 456 402.5Q422 369 362 357Q441 352 487.5 314.5Q534 277 534 216Z" glyph-name="uni0E3F" horiz-adv-x="594" unicode="&#3647;" /><glyph d="M291 334V-132H279Q183 -132 121.5 -97Q60 -62 60 -5Q60 39 91 67Q122 95 170 95Q183 95 198.5 92.5Q214 90 224 86V69Q215 73 199.5 75.5Q184 78 170 78Q129 78 103.5 55Q78 32 78 -5Q78 -54 135 -85Q192 -116 273 -116V334H85L93 350H273V397Q273 449 228.5 480Q184 511 93 522Q93 603 150.5 657Q208 711 296 711Q335 711 371 702Q407 693 439 675V656Q406 675 370.5 684Q335 693 296 693Q220 693 168.5 649.5Q117 606 111 537Q202 523 246.5 488.5Q291 454 291 398V350H444L439 334Z" glyph-name="uni17DB" horiz-adv-x="505" unicode="&#6107;" /><glyph d="M275 -77H257L306 85Q275 85 246 92Q217 99 192 113L135 -77H117L177 122Q122 157 91 217.5Q60 278 60 351Q60 458 122.5 532.5Q185 607 282 616L329 773H347L300 617Q302 617 303.5 617Q305 617 306 617Q334 617 362.5 610Q391 603 414 590L469 773H487L425 565Q397 582 366.5 591Q336 600 306 600Q209 600 144 529Q79 458 79 351Q79 244 144 173Q209 102 306 102Q336 102 366.5 111Q397 120 425 137V118Q404 105 377.5 96.5Q351 88 324 86Z" glyph-name="uni20A1" horiz-adv-x="526" unicode="&#8353;" /><glyph d="M598 0 456 674 314 0H290L218 305H50V321H214L187 435H50V451H183L124 700H142L303 23L446 700H467L610 23L771 700H788L729 451H863V435H725L698 321H863V305H694L622 0Z" glyph-name="uni20A9" horiz-adv-x="913" unicode="&#8361;" /><glyph d="M112 0V700H267Q371 700 416 655.5Q461 611 461 508V164H442V508Q442 604 402.5 643.5Q363 683 267 683H131V0ZM626 700V192Q626 89 581 44.5Q536 0 432 0H277V538H296V17H432Q528 17 567.5 56.5Q607 96 607 192V700Z" glyph-name="uni20AA" horiz-adv-x="738" unicode="&#8362;" /><glyph d="M262 138Q307 138 348 157.5Q389 177 428 217V434Q398 454 363 464Q328 474 290 474Q209 474 152.5 424Q96 374 96 298Q96 228 143.5 183Q191 138 262 138ZM428 129V195Q396 161 351.5 140.5Q307 120 262 120Q181 120 128.5 169.5Q76 219 76 298Q76 383 137.5 437.5Q199 492 290 492Q327 492 365 481Q403 470 428 452V615H208V632H428V700H447V632H556V615H447V133ZM449 0H123V17H449Z" glyph-name="uni20AB" horiz-adv-x="613" unicode="&#8363;" /><glyph d="M591 368V352H263L646 0H618L229 358L561 700H589L262 368ZM187 700V0H167V352H50V368H167V700Z" glyph-name="uni20AD" horiz-adv-x="694" unicode="&#8365;" /><glyph d="M508 484 133 344V361L310 427V683H50V700H590V683H330V435L508 501ZM330 278V0H310V270L133 204V221L508 361V344Z" glyph-name="uni20AE" horiz-adv-x="640" unicode="&#8366;" /><glyph d="M510 506Q510 588 451.5 635.5Q393 683 294 683H174V329H294Q393 329 451.5 376.5Q510 424 510 506ZM297 312H174V0H154V425H50V441H154V555H50V571H154V700H297Q380 700 439 666Q498 632 519 571H627V555H523Q526 544 527.5 531.5Q529 519 529 506Q529 489 526.5 473Q524 457 518 441H627V425H512Q487 372 430 342Q373 312 297 312Z" glyph-name="uni20B1" horiz-adv-x="667" unicode="&#8369;" /><glyph d="M585 395H50V411H409Q449 430 471.5 464Q494 498 494 540Q494 609 443.5 650.5Q393 692 312 692Q269 692 231.5 683.5Q194 675 157 657V678Q196 695 233 703Q270 711 312 711Q400 711 457 664Q514 617 514 540Q514 500 493.5 465Q473 430 438 411H585ZM362 -11Q264 -11 198 41Q132 93 132 173Q132 197 140 221Q148 245 163 265H50V281H585V265H186Q170 247 161 223Q152 199 152 173Q152 100 211.5 53.5Q271 7 362 7Q423 7 476 25Q529 43 573 78V57Q535 25 479.5 7Q424 -11 362 -11Z" glyph-name="uni20B4" horiz-adv-x="635" unicode="&#8372;" /><glyph d="M590 683H50V700H590ZM310 553H50V570H590V553H330V0H310Z" glyph-name="uni20B8" horiz-adv-x="640" unicode="&#8376;" /><glyph d="M350 328Q388 260 460 170.5Q532 81 612 0H587Q517 69 446 159Q375 249 329 326H95L101 342H336Q396 355 436 399.5Q476 444 480 505H94L100 521H480Q478 600 421 642Q364 684 258 684H93L100 700H594L588 684H366Q431 666 465 624.5Q499 583 499 521H596L589 505H499Q496 443 455.5 395.5Q415 348 350 328Z" glyph-name="uni20B9" horiz-adv-x="686" unicode="&#8377;" /><glyph d="M430 -239Q396 -239 375 -217.5Q354 -196 354 -159Q354 -124 373.5 -87.5Q393 -51 440 2V61Q402 31 349.5 10Q297 -11 252 -11Q171 -11 131.5 29.5Q92 70 92 152V510H111V157Q111 76 144.5 41Q178 6 252 6Q297 6 347.5 25.5Q398 45 440 78V510H459V0Q410 -55 391 -90Q372 -125 372 -159Q372 -189 388 -206Q404 -223 430 -223Q439 -223 446 -222Q453 -221 459 -219V-233Q452 -236 445 -237.5Q438 -239 430 -239Z" glyph-name="uogonek" horiz-adv-x="553" unicode="&#371;" /><glyph d="M440 510H459V0L440 -7V61Q402 31 349.5 10Q297 -11 252 -11Q171 -11 131.5 29.5Q92 70 92 152V510H111V157Q111 76 144.5 41Q178 6 252 6Q297 6 347.5 25.5Q398 45 440 78ZM275 790Q313 790 340 763.5Q367 737 367 699Q367 661 340 634Q313 607 275 607Q237 607 210.5 634Q184 661 184 699Q184 737 211 763.5Q238 790 275 790ZM275 773Q244 773 222.5 751.5Q201 730 201 699Q201 667 222.5 645Q244 623 275 623Q306 623 328 645Q350 667 350 699Q350 730 328 751.5Q306 773 275 773Z" glyph-name="uring" horiz-adv-x="553" unicode="&#367;" /><glyph d="M440 510H459V0L440 -7V61Q402 31 349.5 10Q297 -11 252 -11Q171 -11 131.5 29.5Q92 70 92 152V510H111V157Q111 76 144.5 41Q178 6 252 6Q297 6 347.5 25.5Q398 45 440 78ZM352 627Q336 627 318.5 642Q301 657 268 704Q239 746 224.5 759Q210 772 198 772Q172 772 156.5 740Q141 708 131 627H115Q124 711 144 750Q164 789 199 789Q215 789 232 774Q249 759 282 712Q311 670 326 657Q341 644 353 644Q379 644 394 675.5Q409 707 419 789H436Q427 706 406.5 666.5Q386 627 352 627Z" glyph-name="utilde" horiz-adv-x="553" unicode="&#361;" /><glyph d="M464 510 250 -6H234L20 510H39L242 18L445 510Z" glyph-name="v" horiz-adv-x="484" unicode="v" /><glyph d="M184 23 327 510H343L487 23L631 510H650L496 -6H478L335 477L192 -6H174L20 510H39Z" glyph-name="w" horiz-adv-x="670" unicode="w" /><glyph d="M184 23 327 510H343L487 23L631 510H650L496 -6H478L335 477L192 -6H174L20 510H39ZM428 791 341 612H324L405 791Z" glyph-name="wacute" horiz-adv-x="670" unicode="&#7811;" /><glyph d="M184 23 327 510H343L487 23L631 510H650L496 -6H478L335 477L192 -6H174L20 510H39ZM228 612 325 791H345L443 612H426L335 770L244 612Z" glyph-name="wcircumflex" horiz-adv-x="670" unicode="&#373;" /><glyph d="M184 23 327 510H343L487 23L631 510H650L496 -6H478L335 477L192 -6H174L20 510H39ZM410 689Q400 689 392.5 696.5Q385 704 385 714Q385 725 392 732.5Q399 740 410 740Q421 740 428 732.5Q435 725 435 714Q435 704 428 696.5Q421 689 410 689ZM261 689Q251 689 243.5 696.5Q236 704 236 714Q236 725 243 732.5Q250 740 261 740Q271 740 278 732.5Q285 725 285 714Q285 704 278 696.5Q271 689 261 689Z" glyph-name="wdieresis" horiz-adv-x="670" unicode="&#7813;" /><glyph d="M184 23 327 510H343L487 23L631 510H650L496 -6H478L335 477L192 -6H174L20 510H39ZM265 791 345 612H329L241 791Z" glyph-name="wgrave" horiz-adv-x="670" unicode="&#7809;" /><glyph d="M448 0H426L234 254L41 0H20L223 267L38 510H60L234 281L409 510H430L245 267Z" glyph-name="x" horiz-adv-x="467" unicode="x" /><glyph d="M30 -221Q94 -221 137.5 -174Q181 -127 233 -6L20 510H39L242 17L445 510H464L252 -3Q197 -137 149 -188Q101 -239 30 -239Q13 -239 -4.5 -234.5Q-22 -230 -33 -223V-204Q-20 -212 -3.5 -216.5Q13 -221 30 -221Z" glyph-name="y" horiz-adv-x="484" unicode="y" /><glyph d="M30 -221Q94 -221 137.5 -174Q181 -127 233 -6L20 510H39L242 17L445 510H464L252 -3Q197 -137 149 -188Q101 -239 30 -239Q13 -239 -4.5 -234.5Q-22 -230 -33 -223V-204Q-20 -212 -3.5 -216.5Q13 -221 30 -221ZM337 791 250 612H233L314 791Z" glyph-name="yacute" horiz-adv-x="484" unicode="&#253;" /><glyph d="M30 -221Q94 -221 137.5 -174Q181 -127 233 -6L20 510H39L242 17L445 510H464L252 -3Q197 -137 149 -188Q101 -239 30 -239Q13 -239 -4.5 -234.5Q-22 -230 -33 -223V-204Q-20 -212 -3.5 -216.5Q13 -221 30 -221ZM136 612 233 791H253L351 612H334L243 770L152 612Z" glyph-name="ycircumflex" horiz-adv-x="484" unicode="&#375;" /><glyph d="M30 -221Q94 -221 137.5 -174Q181 -127 233 -6L20 510H39L242 17L445 510H464L252 -3Q197 -137 149 -188Q101 -239 30 -239Q13 -239 -4.5 -234.5Q-22 -230 -33 -223V-204Q-20 -212 -3.5 -216.5Q13 -221 30 -221ZM318 689Q308 689 300.5 696.5Q293 704 293 714Q293 725 300 732.5Q307 740 318 740Q329 740 336 732.5Q343 725 343 714Q343 704 336 696.5Q329 689 318 689ZM169 689Q159 689 151.5 696.5Q144 704 144 714Q144 725 151 732.5Q158 740 169 740Q179 740 186 732.5Q193 725 193 714Q193 704 186 696.5Q179 689 169 689Z" glyph-name="ydieresis" horiz-adv-x="484" unicode="&#255;" /><glyph d="M514 401V385H89V401H280L21 700H45L301 401L558 700H581L321 401ZM514 271V255H311V0H292V255H89V271Z" glyph-name="yen" horiz-adv-x="602" unicode="&#165;" /><glyph d="M30 -221Q94 -221 137.5 -174Q181 -127 233 -6L20 510H39L242 17L445 510H464L252 -3Q197 -137 149 -188Q101 -239 30 -239Q13 -239 -4.5 -234.5Q-22 -230 -33 -223V-204Q-20 -212 -3.5 -216.5Q13 -221 30 -221ZM174 791 254 612H238L150 791Z" glyph-name="ygrave" horiz-adv-x="484" unicode="&#7923;" /><glyph d="M62 16H427L419 0H38V13L379 494H52V510H403V497Z" glyph-name="z" horiz-adv-x="454" unicode="z" /><glyph d="M62 16H427L419 0H38V13L379 494H52V510H403V497ZM336 791 249 612H232L313 791Z" glyph-name="zacute" horiz-adv-x="454" unicode="&#378;" /><glyph d="M62 16H427L419 0H38V13L379 494H52V510H403V497ZM350 791 252 612H232L135 791H151L242 633L333 791Z" glyph-name="zcaron" horiz-adv-x="454" unicode="&#382;" /><glyph d="M62 16H427L419 0H38V13L379 494H52V510H403V497ZM242 690Q232 690 224.5 697.5Q217 705 217 715Q217 726 224.5 733Q232 740 242 740Q253 740 260 733Q267 726 267 715Q267 705 260 697.5Q253 690 242 690Z" glyph-name="zdotaccent" horiz-adv-x="454" unicode="&#380;" /><glyph d="M45 350Q45 511 113 611Q181 711 291 711Q401 711 469 611Q537 511 537 350Q537 189 469 89Q401 -11 291 -11Q181 -11 113 89Q45 189 45 350ZM65 350Q65 197 127 102Q189 7 291 7Q393 7 455 102Q517 197 517 350Q517 503 455 598Q393 693 291 693Q189 693 127 598Q65 503 65 350Z" glyph-name="zero" horiz-adv-x="582" unicode="0" /><glyph d="M537 290Q537 159 467 74Q397 -11 291 -11Q185 -11 115 74Q45 159 45 290Q45 421 115 506Q185 591 291 591Q397 591 467 506Q537 421 537 290ZM64 290Q64 167 128.5 86.5Q193 6 291 6Q389 6 453.5 86.5Q518 167 518 290Q518 413 453.5 493.5Q389 574 291 574Q193 574 128.5 493.5Q64 413 64 290Z" glyph-name="zero.op" horiz-adv-x="582" /></font>
</defs>
</svg>
