<?xml version="1.0" standalone="no"?><!DOCTYPE svg PUBLIC "-//W3C//DTD SVG 1.1//EN" "http://www.w3.org/Graphics/SVG/1.1/DTD/svg11.dtd" ><svg version="1.1" xmlns="http://www.w3.org/2000/svg"><defs><font horiz-adv-x="0" id="font"><font-face ascent="1040" bbox="-51 -227 1129 980" cap-height="700" descent="-227" font-family="PayPal Sans Small Light" font-stretch="normal" font-style="normal" font-weight="300" units-per-em="1024" x-height="510" /><missing-glyph horiz-adv-x="277" /><glyph d="M23 0 279 700H344L600 0H536L450 241H171L85 0ZM310 628 191 296H431L313 628Z" glyph-name="A" horiz-adv-x="623" unicode="A" /><glyph d="M23 0 448 700H888V645H554V390H853V335H554V55H901V0H492V242H236L88 0ZM492 297V661L269 297Z" glyph-name="AE" horiz-adv-x="980" unicode="&#198;" /><glyph d="M23 0 448 700H888V645H554V390H853V335H554V55H901V0H492V242H236L88 0ZM492 297V661L269 297ZM770 940 653 762H619L685 940Z" glyph-name="AEacute" horiz-adv-x="980" unicode="&#508;" /><glyph d="M23 0 279 700H344L600 0H536L450 241H171L85 0ZM310 628 191 296H431L313 628ZM449 940 332 762H298L364 940Z" glyph-name="Aacute" horiz-adv-x="623" unicode="&#193;" /><glyph d="M23 0 279 700H344L600 0H536L450 241H171L85 0ZM310 628 191 296H431L313 628ZM311 762Q245 762 207.5 810.5Q170 859 170 940H219Q223 877 245.5 846.5Q268 816 311 816Q355 816 377.5 846.5Q400 877 403 940H453Q453 859 415.5 810.5Q378 762 311 762Z" glyph-name="Abreve" horiz-adv-x="623" unicode="&#258;" /><glyph d="M23 0 279 700H344L600 0H536L450 241H171L85 0ZM310 628 191 296H431L313 628ZM180 762 274 940H349L442 762H407L311 889L216 762Z" glyph-name="Acircumflex" horiz-adv-x="623" unicode="&#194;" /><glyph d="M23 0 279 700H344L600 0H536L450 241H171L85 0ZM310 628 191 296H431L313 628ZM217 788Q196 788 181.5 803Q167 818 167 840Q167 861 181.5 876.5Q196 892 217 892Q238 892 253 876.5Q268 861 268 840Q268 818 253.5 803Q239 788 217 788ZM405 788Q384 788 369.5 803Q355 818 355 840Q355 861 369.5 876.5Q384 892 405 892Q426 892 440.5 876.5Q455 861 455 840Q455 818 440.5 803Q426 788 405 788Z" glyph-name="Adieresis" horiz-adv-x="623" unicode="&#196;" /><glyph d="M23 0 279 700H344L600 0H536L450 241H171L85 0ZM310 628 191 296H431L313 628ZM269 940 336 762H301L185 940Z" glyph-name="Agrave" horiz-adv-x="623" unicode="&#192;" /><glyph d="M23 0 279 700H344L600 0H536L450 241H171L85 0ZM310 628 191 296H431L313 628ZM455 844V788H167V844Z" glyph-name="Amacron" horiz-adv-x="623" unicode="&#256;" /><glyph d="M425 -138Q425 -98 456 -58Q481 -25 531 12L450 241H171L85 0H23L279 700H344L600 0H573Q522 -38 500 -69Q478 -100 478 -133Q478 -155 491.5 -167Q505 -179 530 -179Q549 -179 569.5 -173.5Q590 -168 611 -157V-201Q595 -212 571 -219Q547 -226 523 -226Q480 -226 452.5 -201Q425 -176 425 -138ZM310 628 191 296H431L313 628Z" glyph-name="Aogonek" horiz-adv-x="623" unicode="&#260;" /><glyph d="M23 0 270 676Q244 685 221 707Q184 745 184 794Q184 844 221.5 881Q259 918 309 918Q359 918 396.5 881Q434 844 434 794Q434 745 396 707Q376 687 352 678L600 0H536L450 241H171L85 0ZM310 628 191 296H431L313 628ZM309 871Q277 871 255 848.5Q233 826 233 794Q233 762 255 740Q277 718 309 718Q341 718 363 740Q385 762 385 794Q385 826 363 848.5Q341 871 309 871Z" glyph-name="Aring" horiz-adv-x="623" unicode="&#197;" /><glyph d="M23 0 279 700H344L600 0H536L450 241H171L85 0ZM310 628 191 296H431L313 628ZM370 763Q351 763 333 775.5Q315 788 285 827Q262 855 251.5 863.5Q241 872 231 872Q208 872 191.5 842.5Q175 813 168 762H123Q126 830 159 879Q192 928 237 928Q256 928 274 915.5Q292 903 322 865Q344 837 354.5 828.5Q365 820 375 820Q398 820 415 849.5Q432 879 439 930H484Q480 861 447.5 812Q415 763 370 763Z" glyph-name="Atilde" horiz-adv-x="623" unicode="&#195;" /><glyph d="M507 518Q507 462 475 422.5Q443 383 390 370Q463 360 507.5 313Q552 266 552 198Q552 104 492 52Q432 0 323 0H111V700H284Q393 700 450 653.5Q507 607 507 518ZM276 645H173V390H276Q360 390 402.5 421.5Q445 453 445 516Q445 582 403.5 613.5Q362 645 276 645ZM488 197Q488 265 446.5 301Q405 337 327 337H173V55H327Q404 55 446 92Q488 129 488 197Z" glyph-name="B" horiz-adv-x="606" unicode="B" /><glyph d="M353 -11Q223 -11 138 89.5Q53 190 53 350Q53 511 137.5 611Q222 711 353 711Q396 711 437.5 698Q479 685 501 664V601Q474 628 436 642Q398 656 353 656Q249 656 183 571Q117 486 117 350Q117 215 183 130Q249 45 353 45Q398 45 436 59Q474 73 501 100V37Q479 15 437.5 2Q396 -11 353 -11Z" glyph-name="C" horiz-adv-x="560" unicode="C" /><glyph d="M353 -11Q223 -11 138 89.5Q53 190 53 350Q53 511 137.5 611Q222 711 353 711Q396 711 437.5 698Q479 685 501 664V601Q474 628 436 642Q398 656 353 656Q249 656 183 571Q117 486 117 350Q117 215 183 130Q249 45 353 45Q398 45 436 59Q474 73 501 100V37Q479 15 437.5 2Q396 -11 353 -11ZM461 940 344 762H310L376 940Z" glyph-name="Cacute" horiz-adv-x="560" unicode="&#262;" /><glyph d="M353 -11Q223 -11 138 89.5Q53 190 53 350Q53 511 137.5 611Q222 711 353 711Q396 711 437.5 698Q479 685 501 664V601Q474 628 436 642Q398 656 353 656Q249 656 183 571Q117 486 117 350Q117 215 183 130Q249 45 353 45Q398 45 436 59Q474 73 501 100V37Q479 15 437.5 2Q396 -11 353 -11ZM235 940 330 813 426 940H461L368 762H293L199 940Z" glyph-name="Ccaron" horiz-adv-x="560" unicode="&#268;" /><glyph d="M419 -131Q419 -173 384 -199.5Q349 -226 297 -226Q266 -226 241 -219.5Q216 -213 198 -201V-148Q224 -165 246 -172Q268 -179 297 -179Q329 -179 348.5 -166.5Q368 -154 368 -132Q368 -110 343.5 -100Q319 -90 267 -90L299 -6Q205 10 138 89Q53 190 53 350Q53 511 137.5 611Q222 711 353 711Q396 711 437.5 698Q479 685 501 664V601Q474 628 436 642Q398 656 353 656Q249 656 183 571Q117 486 117 350Q117 215 183 130Q249 45 353 45Q398 45 436 59Q474 73 501 100V37Q479 15 437.5 2Q396 -11 353 -11Q344 -11 336 -10L322 -50Q369 -56 394 -77Q419 -98 419 -131Z" glyph-name="Ccedilla" horiz-adv-x="560" unicode="&#199;" /><glyph d="M353 -11Q223 -11 138 89.5Q53 190 53 350Q53 511 137.5 611Q222 711 353 711Q396 711 437.5 698Q479 685 501 664V601Q474 628 436 642Q398 656 353 656Q249 656 183 571Q117 486 117 350Q117 215 183 130Q249 45 353 45Q398 45 436 59Q474 73 501 100V37Q479 15 437.5 2Q396 -11 353 -11ZM199 762 293 940H368L461 762H426L330 889L235 762Z" glyph-name="Ccircumflex" horiz-adv-x="560" unicode="&#264;" /><glyph d="M353 -11Q223 -11 138 89.5Q53 190 53 350Q53 511 137.5 611Q222 711 353 711Q396 711 437.5 698Q479 685 501 664V601Q474 628 436 642Q398 656 353 656Q249 656 183 571Q117 486 117 350Q117 215 183 130Q249 45 353 45Q398 45 436 59Q474 73 501 100V37Q479 15 437.5 2Q396 -11 353 -11ZM330 792Q307 792 292.5 807Q278 822 278 845Q278 868 293 883.5Q308 899 330 899Q352 899 367 883.5Q382 868 382 845Q382 822 367.5 807Q353 792 330 792Z" glyph-name="Cdotaccent" horiz-adv-x="560" unicode="&#266;" /><glyph d="M286 0H111V700H286Q440 700 531 606Q622 512 622 351Q622 189 531 94.5Q440 0 286 0ZM173 645V55H282Q412 55 485 133.5Q558 212 558 351Q558 489 485 567Q412 645 282 645Z" glyph-name="D" horiz-adv-x="675" unicode="D" /><glyph d="M286 0H111V700H286Q440 700 531 606Q622 512 622 351Q622 189 531 94.5Q440 0 286 0ZM173 645V55H282Q412 55 485 133.5Q558 212 558 351Q558 489 485 567Q412 645 282 645ZM241 940 336 813 432 940H467L374 762H299L205 940Z" glyph-name="Dcaron" horiz-adv-x="675" unicode="&#270;" /><glyph d="M295 0H120V335H47V390H120V700H295Q449 700 540 606Q631 512 631 351Q631 189 540 94.5Q449 0 295 0ZM182 645V390H336V335H182V55H291Q421 55 494 133.5Q567 212 567 351Q567 489 494 567Q421 645 291 645Z" glyph-name="Dcroat" horiz-adv-x="684" unicode="&#272;" /><glyph d="M520 0H111V700H507V645H173V390H472V335H173V55H520Z" glyph-name="E" horiz-adv-x="599" unicode="E" /><glyph d="M520 0H111V700H507V645H173V390H472V335H173V55H520ZM437 940 320 762H286L352 940Z" glyph-name="Eacute" horiz-adv-x="599" unicode="&#201;" /><glyph d="M520 0H111V700H507V645H173V390H472V335H173V55H520ZM312 762Q246 762 208.5 810.5Q171 859 171 940H220Q224 877 246.5 846.5Q269 816 312 816Q356 816 378.5 846.5Q401 877 404 940H454Q454 859 416.5 810.5Q379 762 312 762Z" glyph-name="Ebreve" horiz-adv-x="599" unicode="&#276;" /><glyph d="M520 0H111V700H507V645H173V390H472V335H173V55H520ZM217 940 312 813 408 940H443L350 762H275L181 940Z" glyph-name="Ecaron" horiz-adv-x="599" unicode="&#282;" /><glyph d="M520 0H111V700H507V645H173V390H472V335H173V55H520ZM181 762 275 940H350L443 762H408L312 889L217 762Z" glyph-name="Ecircumflex" horiz-adv-x="599" unicode="&#202;" /><glyph d="M520 0H111V700H507V645H173V390H472V335H173V55H520ZM218 788Q197 788 182.5 803Q168 818 168 840Q168 861 182.5 876.5Q197 892 218 892Q239 892 254 876.5Q269 861 269 840Q269 818 254.5 803Q240 788 218 788ZM406 788Q385 788 370.5 803Q356 818 356 840Q356 861 370.5 876.5Q385 892 406 892Q427 892 441.5 876.5Q456 861 456 840Q456 818 441.5 803Q427 788 406 788Z" glyph-name="Edieresis" horiz-adv-x="599" unicode="&#203;" /><glyph d="M520 0H111V700H507V645H173V390H472V335H173V55H520ZM312 792Q289 792 274.5 807Q260 822 260 845Q260 868 275 883.5Q290 899 312 899Q334 899 349 883.5Q364 868 364 845Q364 822 349.5 807Q335 792 312 792Z" glyph-name="Edotaccent" horiz-adv-x="599" unicode="&#278;" /><glyph d="M520 0H111V700H507V645H173V390H472V335H173V55H520ZM284 940 351 762H316L200 940Z" glyph-name="Egrave" horiz-adv-x="599" unicode="&#200;" /><glyph d="M520 0H111V700H507V645H173V390H472V335H173V55H520ZM456 844V788H168V844Z" glyph-name="Emacron" horiz-adv-x="599" unicode="&#274;" /><glyph d="M513 -215H434Q496 -159 522 -108.5Q548 -58 549 1L174 597H171V0H111V700H176L546 111H549V700H609V-15Q608 -70 584.5 -118.5Q561 -167 513 -215Z" glyph-name="Eng" horiz-adv-x="721" unicode="&#330;" /><glyph d="M317 -138Q317 -98 348 -58Q369 -31 407 0H111V700H507V645H173V390H472V335H173V55H520V0H465Q414 -38 392 -69Q370 -100 370 -133Q370 -155 383.5 -167Q397 -179 422 -179Q441 -179 461.5 -173.5Q482 -168 503 -157V-201Q487 -212 463 -219Q439 -226 415 -226Q372 -226 344.5 -201Q317 -176 317 -138Z" glyph-name="Eogonek" horiz-adv-x="599" unicode="&#280;" /><glyph d="M295 0H120V335H47V390H120V700H295Q449 700 540 606Q631 512 631 351Q631 189 540 94.5Q449 0 295 0ZM182 645V390H336V335H182V55H291Q421 55 494 133.5Q567 212 567 351Q567 489 494 567Q421 645 291 645Z" glyph-name="Eth" horiz-adv-x="684" unicode="&#208;" /><glyph d="M443 615Q341 615 275 563Q218 518 193 436H436L417 385H46V436H133Q161 540 236 601Q320 669 443 669Q472 669 498.5 664.5Q525 660 552 651V598Q514 609 492.5 612Q471 615 443 615ZM381 239H189Q212 144 275 94Q341 43 443 43Q474 43 496 46.5Q518 50 552 60V6Q524 -3 497.5 -7Q471 -11 443 -11Q319 -11 236 56Q155 121 129 239H46V290H399Z" glyph-name="Euro" horiz-adv-x="589" unicode="&#8364;" /><glyph d="M497 700V645H173V384H467V329H173V0H111V700Z" glyph-name="F" horiz-adv-x="553" unicode="F" /><glyph d="M540 322V12Q506 1 466 -5Q426 -11 388 -11Q244 -11 148.5 86.5Q53 184 53 343Q53 504 147 607.5Q241 711 383 711Q432 711 474 698.5Q516 686 541 664V600Q512 627 471 641.5Q430 656 383 656Q268 656 192.5 567.5Q117 479 117 343Q117 207 194.5 125.5Q272 44 388 44Q419 44 437.5 46.5Q456 49 478 56V322Z" glyph-name="G" horiz-adv-x="614" unicode="G" /><glyph d="M540 322V12Q506 1 466 -5Q426 -11 388 -11Q244 -11 148.5 86.5Q53 184 53 343Q53 504 147 607.5Q241 711 383 711Q432 711 474 698.5Q516 686 541 664V600Q512 627 471 641.5Q430 656 383 656Q268 656 192.5 567.5Q117 479 117 343Q117 207 194.5 125.5Q272 44 388 44Q419 44 437.5 46.5Q456 49 478 56V322ZM366 762Q300 762 262.5 810.5Q225 859 225 940H274Q278 877 300.5 846.5Q323 816 366 816Q410 816 432.5 846.5Q455 877 458 940H508Q508 859 470.5 810.5Q433 762 366 762Z" glyph-name="Gbreve" horiz-adv-x="614" unicode="&#286;" /><glyph d="M540 322V12Q506 1 466 -5Q426 -11 388 -11Q244 -11 148.5 86.5Q53 184 53 343Q53 504 147 607.5Q241 711 383 711Q432 711 474 698.5Q516 686 541 664V600Q512 627 471 641.5Q430 656 383 656Q268 656 192.5 567.5Q117 479 117 343Q117 207 194.5 125.5Q272 44 388 44Q419 44 437.5 46.5Q456 49 478 56V322ZM235 762 329 940H404L497 762H462L366 889L271 762Z" glyph-name="Gcircumflex" horiz-adv-x="614" unicode="&#284;" /><glyph d="M540 322V12Q506 1 466 -5Q426 -11 388 -11Q244 -11 148.5 86.5Q53 184 53 343Q53 504 147 607.5Q241 711 383 711Q432 711 474 698.5Q516 686 541 664V600Q512 627 471 641.5Q430 656 383 656Q268 656 192.5 567.5Q117 479 117 343Q117 207 194.5 125.5Q272 44 388 44Q419 44 437.5 46.5Q456 49 478 56V322ZM366 792Q343 792 328.5 807Q314 822 314 845Q314 868 329 883.5Q344 899 366 899Q388 899 403 883.5Q418 868 418 845Q418 822 403.5 807Q389 792 366 792Z" glyph-name="Gdotaccent" horiz-adv-x="614" unicode="&#288;" /><glyph d="M611 0H549V335H173V0H111V700H173V390H549V700H611Z" glyph-name="H" horiz-adv-x="722" unicode="H" /><glyph d="M693 532V477H620V0H558V281H182V0H120V477H47V532H120V700H182V532H558V700H620V532ZM558 335V477H182V335Z" glyph-name="Hbar" horiz-adv-x="740" unicode="&#294;" /><glyph d="M611 0H549V335H173V0H111V700H173V390H549V700H611ZM230 762 324 940H399L492 762H457L361 889L266 762Z" glyph-name="Hcircumflex" horiz-adv-x="722" unicode="&#292;" /><glyph d="M173 0H111V700H173Z" glyph-name="I" horiz-adv-x="284" unicode="I" /><glyph d="M173 0H111V700H173ZM277 940 160 762H126L192 940Z" glyph-name="Iacute" horiz-adv-x="284" unicode="&#205;" /><glyph d="M173 0H111V700H173ZM141 762Q75 762 37.5 810.5Q0 859 0 940H49Q53 877 75.5 846.5Q98 816 141 816Q185 816 207.5 846.5Q230 877 233 940H283Q283 859 245.5 810.5Q208 762 141 762Z" glyph-name="Ibreve" horiz-adv-x="284" unicode="&#300;" /><glyph d="M173 0H111V700H173ZM10 762 104 940H179L272 762H237L141 889L46 762Z" glyph-name="Icircumflex" horiz-adv-x="284" unicode="&#206;" /><glyph d="M173 0H111V700H173ZM47 788Q26 788 11.5 803Q-3 818 -3 840Q-3 861 11.5 876.5Q26 892 47 892Q68 892 83 876.5Q98 861 98 840Q98 818 83.5 803Q69 788 47 788ZM235 788Q214 788 199.5 803Q185 818 185 840Q185 861 199.5 876.5Q214 892 235 892Q256 892 270.5 876.5Q285 861 285 840Q285 818 270.5 803Q256 788 235 788Z" glyph-name="Idieresis" horiz-adv-x="284" unicode="&#207;" /><glyph d="M173 0H111V700H173ZM141 792Q118 792 103.5 807Q89 822 89 845Q89 868 104 883.5Q119 899 141 899Q163 899 178 883.5Q193 868 193 845Q193 822 178.5 807Q164 792 141 792Z" glyph-name="Idotaccent" horiz-adv-x="284" unicode="&#304;" /><glyph d="M173 0H111V700H173ZM100 940 167 762H132L16 940Z" glyph-name="Igrave" horiz-adv-x="284" unicode="&#204;" /><glyph d="M173 0H111V700H173ZM285 844V788H-3V844Z" glyph-name="Imacron" horiz-adv-x="284" unicode="&#298;" /><glyph d="M206 -157V-201Q190 -212 166 -219Q142 -226 118 -226Q75 -226 47.5 -201Q20 -176 20 -138Q20 -106 43 -73Q66 -40 117 0H111V701H173V0Q119 -41 96 -71.5Q73 -102 73 -133Q73 -155 86.5 -167Q100 -179 125 -179Q144 -179 164.5 -173.5Q185 -168 206 -157Z" glyph-name="Iogonek" horiz-adv-x="284" unicode="&#302;" /><glyph d="M173 0H111V700H173ZM210 763Q191 763 173 775.5Q155 788 125 827Q102 855 91.5 863.5Q81 872 71 872Q48 872 31.5 842.5Q15 813 8 762H-37Q-34 830 -1 879Q32 928 77 928Q96 928 114 915.5Q132 903 162 865Q184 837 194.5 828.5Q205 820 215 820Q238 820 255 849.5Q272 879 279 930H324Q320 861 287.5 812Q255 763 210 763Z" glyph-name="Itilde" horiz-adv-x="284" unicode="&#296;" /><glyph d="M173 700V110Q173 16 154.5 -48Q136 -112 90 -169H11Q66 -111 88.5 -47.5Q111 16 111 109V700Z" glyph-name="J" horiz-adv-x="284" unicode="J" /><glyph d="M173 700V110Q173 16 154.5 -48Q136 -112 90 -169H11Q66 -111 88.5 -47.5Q111 16 111 109V700ZM8 762 102 940H177L270 762H235L139 889L44 762Z" glyph-name="Jcircumflex" horiz-adv-x="284" unicode="&#308;" /><glyph d="M173 0H111V700H173V379L489 700H568L236 372L594 0H514L173 350Z" glyph-name="K" horiz-adv-x="598" unicode="K" /><glyph d="M173 700V55H501V0H111V700Z" glyph-name="L" horiz-adv-x="553" unicode="L" /><glyph d="M173 700V55H501V0H111V700ZM279 940 162 762H128L194 940Z" glyph-name="Lacute" horiz-adv-x="553" unicode="&#313;" /><glyph d="M173 700V55H501V0H111V700ZM354 461H316L346 702H422Z" glyph-name="Lcaron" horiz-adv-x="553" unicode="&#317;" /><glyph d="M173 700V55H501V0H111V700ZM413 299Q390 299 375.5 314Q361 329 361 352Q361 375 376 390.5Q391 406 413 406Q435 406 450 390.5Q465 375 465 352Q465 329 450.5 314Q436 299 413 299Z" glyph-name="Ldot" horiz-adv-x="553" unicode="&#319;" /><glyph d="M47 290 120 336V700H182V370L363 482V423L182 311V55H510V0H120V277L47 230Z" glyph-name="Lslash" horiz-adv-x="562" unicode="&#321;" /><glyph d="M580 631 427 121H358L205 631H198L135 0H73L147 700H241L389 210H396L544 700H639L712 0H650L588 631Z" glyph-name="M" horiz-adv-x="785" unicode="M" /><glyph d="M609 0H552L174 597H171V0H111V700H176L546 111H549V700H609Z" glyph-name="N" horiz-adv-x="721" unicode="N" /><glyph glyph-name="NULL" horiz-adv-x="0" /><glyph d="M609 0H552L174 597H171V0H111V700H176L546 111H549V700H609ZM487 940 370 762H336L402 940Z" glyph-name="Nacute" horiz-adv-x="721" unicode="&#323;" /><glyph d="M609 0H552L174 597H171V0H111V700H176L546 111H549V700H609ZM263 940 358 813 454 940H489L396 762H321L227 940Z" glyph-name="Ncaron" horiz-adv-x="721" unicode="&#327;" /><glyph d="M609 0H552L174 597H171V0H111V700H176L546 111H549V700H609ZM425 763Q406 763 388 775.5Q370 788 340 827Q317 855 306.5 863.5Q296 872 286 872Q263 872 246.5 842.5Q230 813 223 762H178Q181 830 214 879Q247 928 292 928Q311 928 329 915.5Q347 903 377 865Q399 837 409.5 828.5Q420 820 430 820Q453 820 470 849.5Q487 879 494 930H539Q535 861 502.5 812Q470 763 425 763Z" glyph-name="Ntilde" horiz-adv-x="721" unicode="&#209;" /><glyph d="M331 44Q428 44 486.5 128.5Q545 213 545 350Q545 487 486.5 571.5Q428 656 331 656Q234 656 175.5 571.5Q117 487 117 350Q117 213 175.5 128.5Q234 44 331 44ZM331 711Q456 711 532.5 611.5Q609 512 609 350Q609 188 532.5 88.5Q456 -11 331 -11Q206 -11 129.5 88.5Q53 188 53 350Q53 512 129.5 611.5Q206 711 331 711Z" glyph-name="O" horiz-adv-x="662" unicode="O" /><glyph d="M502 55V646H393Q263 646 190 568Q117 490 117 351Q117 212 190 133.5Q263 55 393 55ZM911 0H389Q235 0 144 94.5Q53 189 53 351Q53 512 144 606Q235 700 389 700H898V646H564V390H863V335H564V55H911Z" glyph-name="OE" horiz-adv-x="990" unicode="&#338;" /><glyph d="M331 44Q428 44 486.5 128.5Q545 213 545 350Q545 487 486.5 571.5Q428 656 331 656Q234 656 175.5 571.5Q117 487 117 350Q117 213 175.5 128.5Q234 44 331 44ZM331 711Q456 711 532.5 611.5Q609 512 609 350Q609 188 532.5 88.5Q456 -11 331 -11Q206 -11 129.5 88.5Q53 188 53 350Q53 512 129.5 611.5Q206 711 331 711ZM459 940 342 762H308L374 940Z" glyph-name="Oacute" horiz-adv-x="662" unicode="&#211;" /><glyph d="M331 44Q428 44 486.5 128.5Q545 213 545 350Q545 487 486.5 571.5Q428 656 331 656Q234 656 175.5 571.5Q117 487 117 350Q117 213 175.5 128.5Q234 44 331 44ZM331 711Q456 711 532.5 611.5Q609 512 609 350Q609 188 532.5 88.5Q456 -11 331 -11Q206 -11 129.5 88.5Q53 188 53 350Q53 512 129.5 611.5Q206 711 331 711ZM330 762Q264 762 226.5 810.5Q189 859 189 940H238Q242 877 264.5 846.5Q287 816 330 816Q374 816 396.5 846.5Q419 877 422 940H472Q472 859 434.5 810.5Q397 762 330 762Z" glyph-name="Obreve" horiz-adv-x="662" unicode="&#334;" /><glyph d="M331 44Q428 44 486.5 128.5Q545 213 545 350Q545 487 486.5 571.5Q428 656 331 656Q234 656 175.5 571.5Q117 487 117 350Q117 213 175.5 128.5Q234 44 331 44ZM331 711Q456 711 532.5 611.5Q609 512 609 350Q609 188 532.5 88.5Q456 -11 331 -11Q206 -11 129.5 88.5Q53 188 53 350Q53 512 129.5 611.5Q206 711 331 711ZM199 762 293 940H368L461 762H426L330 889L235 762Z" glyph-name="Ocircumflex" horiz-adv-x="662" unicode="&#212;" /><glyph d="M331 44Q428 44 486.5 128.5Q545 213 545 350Q545 487 486.5 571.5Q428 656 331 656Q234 656 175.5 571.5Q117 487 117 350Q117 213 175.5 128.5Q234 44 331 44ZM331 711Q456 711 532.5 611.5Q609 512 609 350Q609 188 532.5 88.5Q456 -11 331 -11Q206 -11 129.5 88.5Q53 188 53 350Q53 512 129.5 611.5Q206 711 331 711ZM236 788Q215 788 200.5 803Q186 818 186 840Q186 861 200.5 876.5Q215 892 236 892Q257 892 272 876.5Q287 861 287 840Q287 818 272.5 803Q258 788 236 788ZM424 788Q403 788 388.5 803Q374 818 374 840Q374 861 388.5 876.5Q403 892 424 892Q445 892 459.5 876.5Q474 861 474 840Q474 818 459.5 803Q445 788 424 788Z" glyph-name="Odieresis" horiz-adv-x="662" unicode="&#214;" /><glyph d="M331 44Q428 44 486.5 128.5Q545 213 545 350Q545 487 486.5 571.5Q428 656 331 656Q234 656 175.5 571.5Q117 487 117 350Q117 213 175.5 128.5Q234 44 331 44ZM331 711Q456 711 532.5 611.5Q609 512 609 350Q609 188 532.5 88.5Q456 -11 331 -11Q206 -11 129.5 88.5Q53 188 53 350Q53 512 129.5 611.5Q206 711 331 711ZM293 940 360 762H325L209 940Z" glyph-name="Ograve" horiz-adv-x="662" unicode="&#210;" /><glyph d="M331 44Q428 44 486.5 128.5Q545 213 545 350Q545 487 486.5 571.5Q428 656 331 656Q234 656 175.5 571.5Q117 487 117 350Q117 213 175.5 128.5Q234 44 331 44ZM331 711Q456 711 532.5 611.5Q609 512 609 350Q609 188 532.5 88.5Q456 -11 331 -11Q206 -11 129.5 88.5Q53 188 53 350Q53 512 129.5 611.5Q206 711 331 711ZM257 762H224L289 940H373ZM419 762H386L450 940H534Z" glyph-name="Ohungarumlaut" horiz-adv-x="662" unicode="&#336;" /><glyph d="M331 44Q428 44 486.5 128.5Q545 213 545 350Q545 487 486.5 571.5Q428 656 331 656Q234 656 175.5 571.5Q117 487 117 350Q117 213 175.5 128.5Q234 44 331 44ZM331 711Q456 711 532.5 611.5Q609 512 609 350Q609 188 532.5 88.5Q456 -11 331 -11Q206 -11 129.5 88.5Q53 188 53 350Q53 512 129.5 611.5Q206 711 331 711ZM474 844V788H186V844Z" glyph-name="Omacron" horiz-adv-x="662" unicode="&#332;" /><glyph d="M113 -46H55L134 82L129 88Q53 188 53 350Q53 512 129.5 611.5Q206 711 331 711Q423 711 489 656L547 750H608L526 619Q529 615 532 611Q609 512 609 350Q609 188 532.5 88.5Q456 -11 331 -11Q236 -11 170 45ZM331 44Q428 44 486.5 128.5Q545 213 545 350Q545 480 492 563L201 96Q254 44 331 44ZM331 656Q234 656 175.5 571.5Q117 487 117 350Q117 221 169 138L458 605Q406 656 331 656Z" glyph-name="Oslash" horiz-adv-x="662" unicode="&#216;" /><glyph d="M113 -46H55L134 82L129 88Q53 188 53 350Q53 512 129.5 611.5Q206 711 331 711Q423 711 489 656L547 750H608L526 619Q529 615 532 611Q609 512 609 350Q609 188 532.5 88.5Q456 -11 331 -11Q236 -11 170 45ZM331 44Q428 44 486.5 128.5Q545 213 545 350Q545 480 492 563L201 96Q254 44 331 44ZM331 656Q234 656 175.5 571.5Q117 487 117 350Q117 221 169 138L458 605Q406 656 331 656ZM461 940 344 762H310L376 940Z" glyph-name="Oslashacute" horiz-adv-x="662" unicode="&#510;" /><glyph d="M331 44Q428 44 486.5 128.5Q545 213 545 350Q545 487 486.5 571.5Q428 656 331 656Q234 656 175.5 571.5Q117 487 117 350Q117 213 175.5 128.5Q234 44 331 44ZM331 711Q456 711 532.5 611.5Q609 512 609 350Q609 188 532.5 88.5Q456 -11 331 -11Q206 -11 129.5 88.5Q53 188 53 350Q53 512 129.5 611.5Q206 711 331 711ZM409 763Q390 763 372 775.5Q354 788 324 827Q301 855 290.5 863.5Q280 872 270 872Q247 872 230.5 842.5Q214 813 207 762H162Q165 830 198 879Q231 928 276 928Q295 928 313 915.5Q331 903 361 865Q383 837 393.5 828.5Q404 820 414 820Q437 820 454 849.5Q471 879 478 930H523Q519 861 486.5 812Q454 763 409 763Z" glyph-name="Otilde" horiz-adv-x="662" unicode="&#213;" /><glyph d="M557 496Q557 403 492 347.5Q427 292 321 292H173V0H111V700H321Q427 700 492 644.5Q557 589 557 496ZM493 496Q493 565 446.5 605Q400 645 321 645H173V347H321Q401 347 447 387Q493 427 493 496Z" glyph-name="P" horiz-adv-x="597" unicode="P" /><glyph d="M331 711Q456 711 532.5 611.5Q609 512 609 350Q609 188 532 88Q464 0 358 -9Q370 -58 399 -87Q440 -128 514 -128Q533 -128 555.5 -125Q578 -122 592 -117V-168Q577 -174 556 -177.5Q535 -181 514 -181Q415 -181 357 -127Q311 -84 295 -9Q194 3 129 88Q53 188 53 350Q53 512 129.5 611.5Q206 711 331 711ZM331 44Q428 44 486.5 128.5Q545 213 545 350Q545 487 486.5 571.5Q428 656 331 656Q234 656 175.5 571.5Q117 487 117 350Q117 213 175.5 128.5Q234 44 331 44Z" glyph-name="Q" horiz-adv-x="662" unicode="Q" /><glyph d="M380 316 609 0H534L318 302H173V0H111V700H273Q396 700 461.5 649Q527 598 527 502Q527 436 488 387Q449 338 380 316ZM277 645H173V356H334Q395 370 429 408Q463 446 463 503Q463 570 414 607.5Q365 645 277 645Z" glyph-name="R" horiz-adv-x="632" unicode="R" /><glyph d="M380 316 609 0H534L318 302H173V0H111V700H273Q396 700 461.5 649Q527 598 527 502Q527 436 488 387Q449 338 380 316ZM277 645H173V356H334Q395 370 429 408Q463 446 463 503Q463 570 414 607.5Q365 645 277 645ZM436 940 319 762H285L351 940Z" glyph-name="Racute" horiz-adv-x="632" unicode="&#340;" /><glyph d="M380 316 609 0H534L318 302H173V0H111V700H273Q396 700 461.5 649Q527 598 527 502Q527 436 488 387Q449 338 380 316ZM277 645H173V356H334Q395 370 429 408Q463 446 463 503Q463 570 414 607.5Q365 645 277 645ZM211 940 306 813 402 940H437L344 762H269L175 940Z" glyph-name="Rcaron" horiz-adv-x="632" unicode="&#344;" /><glyph d="M240 -11Q185 -11 124.5 7.5Q64 26 35 53V119Q76 82 131.5 62Q187 42 240 42Q328 42 377 80Q426 118 426 185Q426 216 412 241Q398 266 369 287Q353 298 330.5 309.5Q308 321 259 342Q203 365 178 378.5Q153 392 134 406Q103 430 88 459.5Q73 489 73 526Q73 608 136.5 659.5Q200 711 292 711Q339 711 380.5 699Q422 687 457 663V599Q418 629 376 644Q334 659 292 659Q222 659 178.5 623Q135 587 135 528Q135 490 163.5 462Q192 434 287 394Q347 369 375 353.5Q403 338 423 321Q456 294 472 260.5Q488 227 488 185Q488 98 419 43.5Q350 -11 240 -11Z" glyph-name="S" horiz-adv-x="540" unicode="S" /><glyph d="M240 -11Q185 -11 124.5 7.5Q64 26 35 53V119Q76 82 131.5 62Q187 42 240 42Q328 42 377 80Q426 118 426 185Q426 216 412 241Q398 266 369 287Q353 298 330.5 309.5Q308 321 259 342Q203 365 178 378.5Q153 392 134 406Q103 430 88 459.5Q73 489 73 526Q73 608 136.5 659.5Q200 711 292 711Q339 711 380.5 699Q422 687 457 663V599Q418 629 376 644Q334 659 292 659Q222 659 178.5 623Q135 587 135 528Q135 490 163.5 462Q192 434 287 394Q347 369 375 353.5Q403 338 423 321Q456 294 472 260.5Q488 227 488 185Q488 98 419 43.5Q350 -11 240 -11ZM408 940 291 762H257L323 940Z" glyph-name="Sacute" horiz-adv-x="540" unicode="&#346;" /><glyph d="M240 -11Q185 -11 124.5 7.5Q64 26 35 53V119Q76 82 131.5 62Q187 42 240 42Q328 42 377 80Q426 118 426 185Q426 216 412 241Q398 266 369 287Q353 298 330.5 309.5Q308 321 259 342Q203 365 178 378.5Q153 392 134 406Q103 430 88 459.5Q73 489 73 526Q73 608 136.5 659.5Q200 711 292 711Q339 711 380.5 699Q422 687 457 663V599Q418 629 376 644Q334 659 292 659Q222 659 178.5 623Q135 587 135 528Q135 490 163.5 462Q192 434 287 394Q347 369 375 353.5Q403 338 423 321Q456 294 472 260.5Q488 227 488 185Q488 98 419 43.5Q350 -11 240 -11ZM179 940 274 813 370 940H405L312 762H237L143 940Z" glyph-name="Scaron" horiz-adv-x="540" unicode="&#352;" /><glyph d="M240 -11Q185 -11 124.5 7.5Q64 26 35 53V119Q76 82 131.5 62Q187 42 240 42Q328 42 377 80Q426 118 426 185Q426 216 412 241Q398 266 369 287Q353 298 330.5 309.5Q308 321 259 342Q203 365 178 378.5Q153 392 134 406Q103 430 88 459.5Q73 489 73 526Q73 608 136.5 659.5Q200 711 292 711Q339 711 380.5 699Q422 687 457 663V599Q418 629 376 644Q334 659 292 659Q222 659 178.5 623Q135 587 135 528Q135 490 163.5 462Q192 434 287 394Q347 369 375 353.5Q403 338 423 321Q456 294 472 260.5Q488 227 488 185Q488 98 419 43.5Q350 -11 240 -11ZM144 762 238 940H313L406 762H371L275 889L180 762Z" glyph-name="Scircumflex" horiz-adv-x="540" unicode="&#348;" /><glyph d="M261 645H32V700H553V645H323V0H261Z" glyph-name="T" horiz-adv-x="585" unicode="T" /><glyph d="M261 645H32V700H553V645H323V390H436V335H323V0H261V335H148V390H261Z" glyph-name="Tbar" horiz-adv-x="585" unicode="&#358;" /><glyph d="M261 645H32V700H553V645H323V0H261ZM197 940 292 813 388 940H423L330 762H255L161 940Z" glyph-name="Tcaron" horiz-adv-x="585" unicode="&#356;" /><glyph d="M377 -131Q377 -173 342 -199.5Q307 -226 255 -226Q224 -226 199 -219.5Q174 -213 156 -201V-148Q182 -165 204 -172Q226 -179 255 -179Q287 -179 306.5 -166.5Q326 -154 326 -132Q326 -110 301.5 -100Q277 -90 225 -90L261 2V645H32V700H553V645H323V0H298L280 -50Q327 -56 352 -77Q377 -98 377 -131Z" glyph-name="Tcommaaccent" horiz-adv-x="585" unicode="&#354;" /><glyph d="M173 165V0H111V700H173V574H321Q427 574 492 518.5Q557 463 557 370Q557 277 492 221Q427 165 321 165ZM493 370Q493 439 446.5 479Q400 519 321 519H173V220H321Q401 220 447 260Q493 300 493 370Z" glyph-name="Thorn" horiz-adv-x="597" unicode="&#222;" /><glyph d="M334 45Q429 45 476 103Q523 161 523 277V700H585V265Q585 135 518 62Q451 -11 334 -11Q218 -11 151 62Q84 135 84 265V700H146V277Q146 162 193 103.5Q240 45 334 45Z" glyph-name="U" horiz-adv-x="669" unicode="U" /><glyph d="M334 45Q429 45 476 103Q523 161 523 277V700H585V265Q585 135 518 62Q451 -11 334 -11Q218 -11 151 62Q84 135 84 265V700H146V277Q146 162 193 103.5Q240 45 334 45ZM459 940 342 762H308L374 940Z" glyph-name="Uacute" horiz-adv-x="669" unicode="&#218;" /><glyph d="M334 45Q429 45 476 103Q523 161 523 277V700H585V265Q585 135 518 62Q451 -11 334 -11Q218 -11 151 62Q84 135 84 265V700H146V277Q146 162 193 103.5Q240 45 334 45ZM334 762Q268 762 230.5 810.5Q193 859 193 940H242Q246 877 268.5 846.5Q291 816 334 816Q378 816 400.5 846.5Q423 877 426 940H476Q476 859 438.5 810.5Q401 762 334 762Z" glyph-name="Ubreve" horiz-adv-x="669" unicode="&#364;" /><glyph d="M334 45Q429 45 476 103Q523 161 523 277V700H585V265Q585 135 518 62Q451 -11 334 -11Q218 -11 151 62Q84 135 84 265V700H146V277Q146 162 193 103.5Q240 45 334 45ZM203 762 297 940H372L465 762H430L334 889L239 762Z" glyph-name="Ucircumflex" horiz-adv-x="669" unicode="&#219;" /><glyph d="M334 45Q429 45 476 103Q523 161 523 277V700H585V265Q585 135 518 62Q451 -11 334 -11Q218 -11 151 62Q84 135 84 265V700H146V277Q146 162 193 103.5Q240 45 334 45ZM240 788Q219 788 204.5 803Q190 818 190 840Q190 861 204.5 876.5Q219 892 240 892Q261 892 276 876.5Q291 861 291 840Q291 818 276.5 803Q262 788 240 788ZM428 788Q407 788 392.5 803Q378 818 378 840Q378 861 392.5 876.5Q407 892 428 892Q449 892 463.5 876.5Q478 861 478 840Q478 818 463.5 803Q449 788 428 788Z" glyph-name="Udieresis" horiz-adv-x="669" unicode="&#220;" /><glyph d="M334 45Q429 45 476 103Q523 161 523 277V700H585V265Q585 135 518 62Q451 -11 334 -11Q218 -11 151 62Q84 135 84 265V700H146V277Q146 162 193 103.5Q240 45 334 45ZM301 940 368 762H333L217 940Z" glyph-name="Ugrave" horiz-adv-x="669" unicode="&#217;" /><glyph d="M334 45Q429 45 476 103Q523 161 523 277V700H585V265Q585 135 518 62Q451 -11 334 -11Q218 -11 151 62Q84 135 84 265V700H146V277Q146 162 193 103.5Q240 45 334 45ZM265 762H232L297 940H381ZM427 762H394L458 940H542Z" glyph-name="Uhungarumlaut" horiz-adv-x="669" unicode="&#368;" /><glyph d="M334 45Q429 45 476 103Q523 161 523 277V700H585V265Q585 135 518 62Q451 -11 334 -11Q218 -11 151 62Q84 135 84 265V700H146V277Q146 162 193 103.5Q240 45 334 45ZM478 844V788H190V844Z" glyph-name="Umacron" horiz-adv-x="669" unicode="&#362;" /><glyph d="M408 -218Q365 -218 337.5 -193Q310 -168 310 -130Q310 -99 325.5 -68.5Q341 -38 372 -8Q362 -10 353 -10.5Q344 -11 334 -11Q218 -11 151 62Q84 135 84 265V701H146V277Q146 162 193 103.5Q240 45 334 45Q429 45 476 103Q523 161 523 277V701H585V265Q585 179 556.5 120Q528 61 468 23Q420 -8 391.5 -48.5Q363 -89 363 -125Q363 -147 376.5 -159Q390 -171 415 -171Q435 -171 455 -165Q475 -159 496 -148V-193Q480 -204 456 -211Q432 -218 408 -218Z" glyph-name="Uogonek" horiz-adv-x="669" unicode="&#370;" /><glyph d="M334 45Q429 45 476 103Q523 161 523 277V700H585V265Q585 135 518 62Q451 -11 334 -11Q218 -11 151 62Q84 135 84 265V700H146V277Q146 162 193 103.5Q240 45 334 45ZM334 933Q302 933 280 910.5Q258 888 258 856Q258 824 280 802Q302 780 334 780Q366 780 388 802Q410 824 410 856Q410 888 388 910.5Q366 933 334 933ZM334 732Q284 732 246.5 769.5Q209 807 209 856Q209 906 246.5 943Q284 980 334 980Q384 980 421.5 943Q459 906 459 856Q459 807 421.5 769.5Q384 732 334 732Z" glyph-name="Uring" horiz-adv-x="669" unicode="&#366;" /><glyph d="M334 45Q429 45 476 103Q523 161 523 277V700H585V265Q585 135 518 62Q451 -11 334 -11Q218 -11 151 62Q84 135 84 265V700H146V277Q146 162 193 103.5Q240 45 334 45ZM406 763Q387 763 369 775.5Q351 788 321 827Q298 855 287.5 863.5Q277 872 267 872Q244 872 227.5 842.5Q211 813 204 762H159Q162 830 195 879Q228 928 273 928Q292 928 310 915.5Q328 903 358 865Q380 837 390.5 828.5Q401 820 411 820Q434 820 451 849.5Q468 879 475 930H520Q516 861 483.5 812Q451 763 406 763Z" glyph-name="Utilde" horiz-adv-x="669" unicode="&#360;" /><glyph d="M23 700H87L305 87H309L529 700H591L336 0H278Z" glyph-name="V" horiz-adv-x="614" unicode="V" /><glyph d="M230 107 378 700H427L575 107H578L716 700H776L609 0H550L404 582H400L253 0H195L27 700H89L227 107Z" glyph-name="W" horiz-adv-x="804" unicode="W" /><glyph d="M230 107 378 700H427L575 107H578L716 700H776L609 0H550L404 582H400L253 0H195L27 700H89L227 107ZM546 940 429 762H395L461 940Z" glyph-name="Wacute" horiz-adv-x="804" unicode="&#7810;" /><glyph d="M230 107 378 700H427L575 107H578L716 700H776L609 0H550L404 582H400L253 0H195L27 700H89L227 107ZM271 762 365 940H440L533 762H498L402 889L307 762Z" glyph-name="Wcircumflex" horiz-adv-x="804" unicode="&#372;" /><glyph d="M230 107 378 700H427L575 107H578L716 700H776L609 0H550L404 582H400L253 0H195L27 700H89L227 107ZM307 788Q286 788 271.5 803Q257 818 257 840Q257 861 271.5 876.5Q286 892 307 892Q328 892 343 876.5Q358 861 358 840Q358 818 343.5 803Q329 788 307 788ZM495 788Q474 788 459.5 803Q445 818 445 840Q445 861 459.5 876.5Q474 892 495 892Q516 892 530.5 876.5Q545 861 545 840Q545 818 530.5 803Q516 788 495 788Z" glyph-name="Wdieresis" horiz-adv-x="804" unicode="&#7812;" /><glyph d="M230 107 378 700H427L575 107H578L716 700H776L609 0H550L404 582H400L253 0H195L27 700H89L227 107ZM343 940 410 762H375L259 940Z" glyph-name="Wgrave" horiz-adv-x="804" unicode="&#7808;" /><glyph d="M604 0H535L312 332L89 0H23L280 376L59 700H128L314 424L501 700H568L347 379Z" glyph-name="X" horiz-adv-x="627" unicode="X" /><glyph d="M328 302V0H266V302L23 700H89L299 354L507 700H571Z" glyph-name="Y" horiz-adv-x="594" unicode="Y" /><glyph d="M328 302V0H266V302L23 700H89L299 354L507 700H571ZM419 940 302 762H268L334 940Z" glyph-name="Yacute" horiz-adv-x="594" unicode="&#221;" /><glyph d="M328 302V0H266V302L23 700H89L299 354L507 700H571ZM166 762 260 940H335L428 762H393L297 889L202 762Z" glyph-name="Ycircumflex" horiz-adv-x="594" unicode="&#374;" /><glyph d="M328 302V0H266V302L23 700H89L299 354L507 700H571ZM203 788Q182 788 167.5 803Q153 818 153 840Q153 861 167.5 876.5Q182 892 203 892Q224 892 239 876.5Q254 861 254 840Q254 818 239.5 803Q225 788 203 788ZM391 788Q370 788 355.5 803Q341 818 341 840Q341 861 355.5 876.5Q370 892 391 892Q412 892 426.5 876.5Q441 861 441 840Q441 818 426.5 803Q412 788 391 788Z" glyph-name="Ydieresis" horiz-adv-x="594" unicode="&#376;" /><glyph d="M328 302V0H266V302L23 700H89L299 354L507 700H571ZM258 940 325 762H290L174 940Z" glyph-name="Ygrave" horiz-adv-x="594" unicode="&#7922;" /><glyph d="M132 55H538V0H56V40L441 645H64V700H520V658Z" glyph-name="Z" horiz-adv-x="580" unicode="Z" /><glyph d="M132 55H538V0H56V40L441 645H64V700H520V658ZM424 940 307 762H273L339 940Z" glyph-name="Zacute" horiz-adv-x="580" unicode="&#377;" /><glyph d="M132 55H538V0H56V40L441 645H64V700H520V658ZM197 940 292 813 388 940H423L330 762H255L161 940Z" glyph-name="Zcaron" horiz-adv-x="580" unicode="&#381;" /><glyph d="M132 55H538V0H56V40L441 645H64V700H520V658ZM293 792Q270 792 255.5 807Q241 822 241 845Q241 868 256 883.5Q271 899 293 899Q315 899 330 883.5Q345 868 345 845Q345 822 330.5 807Q316 792 293 792Z" glyph-name="Zdotaccent" horiz-adv-x="580" unicode="&#379;" /><glyph d="M115 129Q115 88 140 64Q165 40 209 40Q245 40 279 53Q313 66 348 93V257Q235 257 175 224Q115 191 115 129ZM419 0H363L352 52Q306 17 269 3Q232 -11 194 -11Q134 -11 94.5 28Q55 67 55 129Q55 211 131.5 257Q208 303 348 303V343Q348 405 320.5 434.5Q293 464 237 464Q201 464 161.5 451Q122 438 80 413V468Q108 490 154.5 505.5Q201 521 237 521Q320 521 364 477.5Q408 434 408 353V116Q408 92 409.5 71Q411 50 419 0Z" glyph-name="a" horiz-adv-x="501" unicode="a" /><glyph d="M115 129Q115 88 140 64Q165 40 209 40Q245 40 279 53Q313 66 348 93V257Q235 257 175 224Q115 191 115 129ZM419 0H363L352 52Q306 17 269 3Q232 -11 194 -11Q134 -11 94.5 28Q55 67 55 129Q55 211 131.5 257Q208 303 348 303V343Q348 405 320.5 434.5Q293 464 237 464Q201 464 161.5 451Q122 438 80 413V468Q108 490 154.5 505.5Q201 521 237 521Q320 521 364 477.5Q408 434 408 353V116Q408 92 409.5 71Q411 50 419 0ZM378 773 260 583H226L286 773Z" glyph-name="aacute" horiz-adv-x="501" unicode="&#225;" /><glyph d="M115 129Q115 88 140 64Q165 40 209 40Q245 40 279 53Q313 66 348 93V257Q235 257 175 224Q115 191 115 129ZM419 0H363L352 52Q306 17 269 3Q232 -11 194 -11Q134 -11 94.5 28Q55 67 55 129Q55 211 131.5 257Q208 303 348 303V343Q348 405 320.5 434.5Q293 464 237 464Q201 464 161.5 451Q122 438 80 413V468Q108 490 154.5 505.5Q201 521 237 521Q320 521 364 477.5Q408 434 408 353V116Q408 92 409.5 71Q411 50 419 0ZM246 583Q180 583 142.5 635Q105 687 105 773H154Q158 704 180.5 671Q203 638 246 638Q289 638 312 671.5Q335 705 338 773H388Q388 687 350 635Q312 583 246 583Z" glyph-name="abreve" horiz-adv-x="501" unicode="&#259;" /><glyph d="M115 129Q115 88 140 64Q165 40 209 40Q245 40 279 53Q313 66 348 93V257Q235 257 175 224Q115 191 115 129ZM419 0H363L352 52Q306 17 269 3Q232 -11 194 -11Q134 -11 94.5 28Q55 67 55 129Q55 211 131.5 257Q208 303 348 303V343Q348 405 320.5 434.5Q293 464 237 464Q201 464 161.5 451Q122 438 80 413V468Q108 490 154.5 505.5Q201 521 237 521Q320 521 364 477.5Q408 434 408 353V116Q408 92 409.5 71Q411 50 419 0ZM103 583 209 773H282L387 583H346L245 722L145 583Z" glyph-name="acircumflex" horiz-adv-x="501" unicode="&#226;" /><glyph d="M348 773 230 583H196L256 773Z" glyph-name="acute" horiz-adv-x="547" unicode="&#180;" /><glyph d="M349 940 232 762H198L264 940Z" glyph-name="acute.cap" horiz-adv-x="547" /><glyph d="M115 129Q115 88 140 64Q165 40 209 40Q245 40 279 53Q313 66 348 93V257Q235 257 175 224Q115 191 115 129ZM419 0H363L352 52Q306 17 269 3Q232 -11 194 -11Q134 -11 94.5 28Q55 67 55 129Q55 211 131.5 257Q208 303 348 303V343Q348 405 320.5 434.5Q293 464 237 464Q201 464 161.5 451Q122 438 80 413V468Q108 490 154.5 505.5Q201 521 237 521Q320 521 364 477.5Q408 434 408 353V116Q408 92 409.5 71Q411 50 419 0ZM156 619Q135 619 120.5 633.5Q106 648 106 670Q106 692 120.5 707Q135 722 156 722Q177 722 191.5 707Q206 692 206 670Q206 648 191.5 633.5Q177 619 156 619ZM335 619Q313 619 298.5 633.5Q284 648 284 670Q284 692 298.5 707Q313 722 335 722Q356 722 370.5 707Q385 692 385 670Q385 648 370.5 633.5Q356 619 335 619Z" glyph-name="adieresis" horiz-adv-x="501" unicode="&#228;" /><glyph d="M237 521Q317 521 358 478Q382 453 392 414Q419 461 462 489Q509 521 563 521Q659 521 706 448.5Q753 376 742 251H404Q406 162 456 105Q508 46 589 46Q635 46 666.5 54.5Q698 63 734 83V22Q702 6 665.5 -2.5Q629 -11 589 -11Q482 -11 414 66Q403 78 393 92Q355 48 308 20Q255 -11 203 -11Q138 -11 96.5 28.5Q55 68 55 132Q55 213 131 257.5Q207 302 348 302V343Q348 405 320.5 434.5Q293 464 237 464Q201 464 161.5 451Q122 438 80 413V468Q108 490 154.5 505.5Q201 521 237 521ZM206 40Q257 40 302 70Q338 93 370 135Q347 187 346 251Q230 250 173 221Q115 192 115 132Q115 91 140 65.5Q165 40 206 40ZM679 302Q685 376 653.5 421Q622 466 562 466Q491 466 447 408Q414 365 406 302Z" glyph-name="ae" horiz-adv-x="795" unicode="&#230;" /><glyph d="M237 521Q317 521 358 478Q382 453 392 414Q419 461 462 489Q509 521 563 521Q659 521 706 448.5Q753 376 742 251H404Q406 162 456 105Q508 46 589 46Q635 46 666.5 54.5Q698 63 734 83V22Q702 6 665.5 -2.5Q629 -11 589 -11Q482 -11 414 66Q403 78 393 92Q355 48 308 20Q255 -11 203 -11Q138 -11 96.5 28.5Q55 68 55 132Q55 213 131 257.5Q207 302 348 302V343Q348 405 320.5 434.5Q293 464 237 464Q201 464 161.5 451Q122 438 80 413V468Q108 490 154.5 505.5Q201 521 237 521ZM206 40Q257 40 302 70Q338 93 370 135Q347 187 346 251Q230 250 173 221Q115 192 115 132Q115 91 140 65.5Q165 40 206 40ZM679 302Q685 376 653.5 421Q622 466 562 466Q491 466 447 408Q414 365 406 302ZM528 773 410 583H376L436 773Z" glyph-name="aeacute" horiz-adv-x="795" unicode="&#509;" /><glyph d="M115 129Q115 88 140 64Q165 40 209 40Q245 40 279 53Q313 66 348 93V257Q235 257 175 224Q115 191 115 129ZM419 0H363L352 52Q306 17 269 3Q232 -11 194 -11Q134 -11 94.5 28Q55 67 55 129Q55 211 131.5 257Q208 303 348 303V343Q348 405 320.5 434.5Q293 464 237 464Q201 464 161.5 451Q122 438 80 413V468Q108 490 154.5 505.5Q201 521 237 521Q320 521 364 477.5Q408 434 408 353V116Q408 92 409.5 71Q411 50 419 0ZM239 773 299 583H265L147 773Z" glyph-name="agrave" horiz-adv-x="501" unicode="&#224;" /><glyph d="M115 129Q115 88 140 64Q165 40 209 40Q245 40 279 53Q313 66 348 93V257Q235 257 175 224Q115 191 115 129ZM419 0H363L352 52Q306 17 269 3Q232 -11 194 -11Q134 -11 94.5 28Q55 67 55 129Q55 211 131.5 257Q208 303 348 303V343Q348 405 320.5 434.5Q293 464 237 464Q201 464 161.5 451Q122 438 80 413V468Q108 490 154.5 505.5Q201 521 237 521Q320 521 364 477.5Q408 434 408 353V116Q408 92 409.5 71Q411 50 419 0ZM378 698V641H114V698Z" glyph-name="amacron" horiz-adv-x="501" unicode="&#257;" /><glyph d="M336 658Q279 658 242.5 626.5Q206 595 206 545Q206 514 220.5 486.5Q235 459 292 403L501 193Q544 277 558 399H614Q599 256 539 155L694 0H613L506 106Q505 105 504 103Q413 -11 277 -11Q187 -11 127.5 46Q68 103 68 184Q68 252 110 305Q146 351 219 391Q180 432 166 459Q147 497 147 539Q147 614 200.5 662.5Q254 711 336 711Q382 711 420.5 699.5Q459 688 496 665V602Q458 631 420 644.5Q382 658 336 658ZM161 290Q130 249 130 191Q130 129 172.5 85.5Q215 42 278 42Q392 42 465 137Q467 140 469 142L252 357Q189 325 161 290Z" glyph-name="ampersand" horiz-adv-x="719" unicode="&amp;" /><glyph d="M269 -139Q269 -99 300 -59Q322 -31 362 1L352 52Q306 17 269 3Q232 -11 194 -11Q134 -11 94.5 28Q55 67 55 129Q55 211 131.5 257Q208 303 348 303V343Q348 405 320.5 434.5Q293 464 237 464Q201 464 161.5 451Q122 438 80 413V468Q108 490 154.5 505.5Q201 521 237 521Q320 521 364 477.5Q408 434 408 353V116Q408 92 409.5 71Q411 50 419 0Q367 -39 344.5 -70Q322 -101 322 -134Q322 -156 335.5 -168Q349 -180 374 -180Q393 -180 413.5 -174.5Q434 -169 455 -158V-202Q439 -213 415 -220Q391 -227 367 -227Q324 -227 296.5 -202Q269 -177 269 -139ZM115 129Q115 88 140 64Q165 40 209 40Q245 40 279 53Q313 66 348 93V257Q235 257 175 224Q115 191 115 129Z" glyph-name="aogonek" horiz-adv-x="501" unicode="&#261;" /><glyph d="M115 129Q115 88 140 64Q165 40 209 40Q245 40 279 53Q313 66 348 93V257Q235 257 175 224Q115 191 115 129ZM419 0H363L352 52Q306 17 269 3Q232 -11 194 -11Q134 -11 94.5 28Q55 67 55 129Q55 211 131.5 257Q208 303 348 303V343Q348 405 320.5 434.5Q293 464 237 464Q201 464 161.5 451Q122 438 80 413V468Q108 490 154.5 505.5Q201 521 237 521Q320 521 364 477.5Q408 434 408 353V116Q408 92 409.5 71Q411 50 419 0ZM247 643Q273 643 292 661.5Q311 680 311 706Q311 732 292 750.5Q273 769 247 769Q221 769 202 750.5Q183 732 183 706Q183 680 202 661.5Q221 643 247 643ZM247 814Q291 814 323 782Q355 750 355 706Q355 662 323 630.5Q291 599 247 599Q202 599 170 630.5Q138 662 138 706Q138 750 170.5 782Q203 814 247 814Z" glyph-name="aring" horiz-adv-x="501" unicode="&#229;" /><glyph d="M87 425 269 701H320L502 425H437L294 630L151 425Z" glyph-name="asciicircum" horiz-adv-x="589" unicode="^" /><glyph d="M365 223Q351 223 334 232.5Q317 242 282 272Q252 297 238.5 305Q225 313 215 313Q193 313 177 290Q161 267 150 220H102Q116 292 147.5 333Q179 374 222 374Q236 374 253 364.5Q270 355 305 325Q336 299 350 291Q364 283 374 283Q395 283 411 306Q427 329 438 376H486Q472 303 440.5 263Q409 223 365 223Z" glyph-name="asciitilde" horiz-adv-x="589" unicode="~" /><glyph d="M217 720V762H277V719L263 591L380 644L420 658L439 600L399 588L274 559L359 466L384 432L335 396L311 430L247 538L183 430L159 396L109 432L135 466L220 559L95 588L55 600L74 658L114 644L230 592Z" glyph-name="asterisk" horiz-adv-x="494" unicode="*" /><glyph d="M389 142Q389 110 411.5 89Q434 68 471 68Q502 68 531.5 80Q561 92 594 117V243Q489 244 439 219.5Q389 195 389 142ZM652 333V95Q662 82 678.5 75Q695 68 717 68Q783 68 833 138Q883 208 883 312Q883 464 781.5 562Q680 660 527 660Q441 660 364.5 627.5Q288 595 232 534Q176 475 147 397Q118 319 118 231Q118 145 149 70.5Q180 -4 239 -59Q296 -113 372.5 -142.5Q449 -172 533 -172Q628 -172 715.5 -143Q803 -114 867 -61V-120Q807 -170 718 -198Q629 -226 534 -226Q438 -226 351 -193Q264 -160 198 -99Q131 -36 95.5 48.5Q60 133 60 231Q60 329 94 417Q128 505 192 571Q257 639 343.5 675.5Q430 712 527 712Q610 712 686 683Q762 654 819 599Q878 544 909 470Q940 396 940 312Q940 256 925 206Q910 156 882 117Q849 71 803 45Q757 19 709 19Q677 19 646.5 34.5Q616 50 601 73Q557 42 524 30Q491 18 459 18Q406 18 369 53Q332 88 332 141Q332 216 397.5 254Q463 292 594 292V322Q594 373 569 399Q544 425 495 425Q460 425 430.5 416Q401 407 363 385V438Q388 458 425 470Q462 482 495 482Q569 482 610.5 442Q652 402 652 333Z" glyph-name="at" horiz-adv-x="1000" unicode="@" /><glyph d="M115 129Q115 88 140 64Q165 40 209 40Q245 40 279 53Q313 66 348 93V257Q235 257 175 224Q115 191 115 129ZM419 0H363L352 52Q306 17 269 3Q232 -11 194 -11Q134 -11 94.5 28Q55 67 55 129Q55 211 131.5 257Q208 303 348 303V343Q348 405 320.5 434.5Q293 464 237 464Q201 464 161.5 451Q122 438 80 413V468Q108 490 154.5 505.5Q201 521 237 521Q320 521 364 477.5Q408 434 408 353V116Q408 92 409.5 71Q411 50 419 0ZM316 598Q297 598 279 610.5Q261 623 231 661Q208 689 197.5 697.5Q187 706 177 706Q154 706 137.5 676.5Q121 647 114 596H69Q72 664 105 713.5Q138 763 183 763Q202 763 220 750.5Q238 738 268 699Q290 671 300.5 662.5Q311 654 321 654Q344 654 361 683.5Q378 713 385 764H430Q426 696 393 647Q360 598 316 598Z" glyph-name="atilde" horiz-adv-x="501" unicode="&#227;" /><glyph d="M99 762H159V451Q189 482 230.5 501.5Q272 521 312 521Q406 521 460.5 453Q515 385 515 266Q515 146 442 67.5Q369 -11 260 -11Q212 -11 172 -0.5Q132 10 99 31ZM302 468Q263 468 225.5 452.5Q188 437 159 409V60Q179 49 204.5 43Q230 37 258 37Q343 37 398.5 101.5Q454 166 454 264Q454 359 413 413.5Q372 468 302 468Z" glyph-name="b" horiz-adv-x="568" unicode="b" /><glyph d="M18 762H77L360 -124H303Z" glyph-name="backslash" horiz-adv-x="378" unicode="\" /><glyph d="M148 762V-124H93V762Z" glyph-name="bar" horiz-adv-x="263" unicode="|" /><glyph d="M146 294H60V343H146Q185 343 197.5 358.5Q210 374 210 411L182 633Q182 691 229.5 726.5Q277 762 350 762Q378 762 401.5 757.5Q425 753 446 744V697Q431 703 402 708Q373 713 351 713Q300 713 270.5 690.5Q241 668 241 630L271 416Q271 375 249.5 350.5Q228 326 188 319Q228 312 249.5 287Q271 262 271 221L241 8Q241 -31 270.5 -53.5Q300 -76 351 -76Q372 -76 401.5 -71Q431 -66 446 -59V-107Q425 -116 401 -120Q377 -124 350 -124Q277 -124 229.5 -88.5Q182 -53 182 5L210 227Q210 264 198 279Q186 294 146 294Z" glyph-name="braceleft" horiz-adv-x="507" unicode="{" /><glyph d="M361 294Q321 294 309 279Q297 264 297 227L325 5Q325 -53 277.5 -88.5Q230 -124 157 -124Q130 -124 106 -120Q82 -116 61 -107V-59Q76 -66 105.5 -71Q135 -76 156 -76Q207 -76 236.5 -53.5Q266 -31 266 8L236 221Q236 262 257.5 287Q279 312 319 319Q279 326 257.5 350.5Q236 375 236 416L266 630Q266 668 236.5 690.5Q207 713 156 713Q134 713 105 708Q76 703 61 697V744Q82 753 105.5 757.5Q129 762 157 762Q230 762 277.5 726.5Q325 691 325 633L297 411Q297 374 309.5 358.5Q322 343 361 343H447V294H361Z" glyph-name="braceright" horiz-adv-x="507" unicode="}" /><glyph d="M351 716H178V-78H351V-124H118V762H351Z" glyph-name="bracketleft" horiz-adv-x="412" unicode="[" /><glyph d="M61 762H294V-124H61V-78H234V716H61Z" glyph-name="bracketright" horiz-adv-x="412" unicode="]" /><glyph d="M273 583Q207 583 169.5 635Q132 687 132 773H181Q185 704 207.5 671Q230 638 273 638Q316 638 339 671.5Q362 705 365 773H415Q415 687 377 635Q339 583 273 583Z" glyph-name="breve" horiz-adv-x="547" unicode="&#728;" /><glyph d="M273 762Q207 762 169.5 810.5Q132 859 132 940H181Q185 877 207.5 846.5Q230 816 273 816Q317 816 339.5 846.5Q362 877 365 940H415Q415 859 377.5 810.5Q340 762 273 762Z" glyph-name="breve.cap" horiz-adv-x="547" /><glyph d="M364 280Q364 226 325.5 187Q287 148 233 148Q179 148 140.5 187Q102 226 102 280Q102 334 140.5 372.5Q179 411 233 411Q287 411 325.5 372.5Q364 334 364 280Z" glyph-name="bullet" horiz-adv-x="466" unicode="&#8226;" /><glyph d="M294 -11Q189 -11 121 63Q53 137 53 252Q53 368 121.5 444.5Q190 521 294 521Q326 521 355 513Q384 505 403 490V434Q378 450 351.5 457.5Q325 465 294 465Q214 465 164 406Q114 347 114 252Q114 159 163 102.5Q212 46 294 46Q326 46 352.5 53.5Q379 61 403 77V20Q384 5 355 -3Q326 -11 294 -11Z" glyph-name="c" horiz-adv-x="452" unicode="c" /><glyph d="M294 -11Q189 -11 121 63Q53 137 53 252Q53 368 121.5 444.5Q190 521 294 521Q326 521 355 513Q384 505 403 490V434Q378 450 351.5 457.5Q325 465 294 465Q214 465 164 406Q114 347 114 252Q114 159 163 102.5Q212 46 294 46Q326 46 352.5 53.5Q379 61 403 77V20Q384 5 355 -3Q326 -11 294 -11ZM398 773 280 583H246L306 773Z" glyph-name="cacute" horiz-adv-x="452" unicode="&#263;" /><glyph d="M173 773 273 634 374 773H415L310 583H237L131 773Z" glyph-name="caron" horiz-adv-x="547" unicode="&#711;" /><glyph d="M196 521H158L188 762H264Z" glyph-name="caron.Slovak" horiz-adv-x="455" /><glyph d="M179 940 274 813 370 940H405L312 762H237L143 940Z" glyph-name="caron.cap" horiz-adv-x="547" /><glyph d="M294 -11Q189 -11 121 63Q53 137 53 252Q53 368 121.5 444.5Q190 521 294 521Q326 521 355 513Q384 505 403 490V434Q378 450 351.5 457.5Q325 465 294 465Q214 465 164 406Q114 347 114 252Q114 159 163 102.5Q212 46 294 46Q326 46 352.5 53.5Q379 61 403 77V20Q384 5 355 -3Q326 -11 294 -11ZM181 773 281 634 382 773H423L318 583H245L139 773Z" glyph-name="ccaron" horiz-adv-x="452" unicode="&#269;" /><glyph d="M361 -131Q361 -173 326 -199.5Q291 -226 239 -226Q208 -226 183 -219.5Q158 -213 140 -201V-148Q166 -165 188 -172Q210 -179 239 -179Q271 -179 290.5 -166.5Q310 -154 310 -132Q310 -110 285.5 -100Q261 -90 209 -90L242 -6Q171 8 121 63Q53 137 53 252Q53 368 121.5 444.5Q190 521 294 521Q326 521 355 513Q384 505 403 490V434Q378 450 351.5 457.5Q325 465 294 465Q214 465 164 406Q114 347 114 252Q114 159 163 102.5Q212 46 294 46Q326 46 352.5 53.5Q379 61 403 77V20Q384 5 355 -3Q326 -11 294 -11Q286 -11 278 -10L264 -50Q311 -56 336 -77Q361 -98 361 -131Z" glyph-name="ccedilla" horiz-adv-x="452" unicode="&#231;" /><glyph d="M294 -11Q189 -11 121 63Q53 137 53 252Q53 368 121.5 444.5Q190 521 294 521Q326 521 355 513Q384 505 403 490V434Q378 450 351.5 457.5Q325 465 294 465Q214 465 164 406Q114 347 114 252Q114 159 163 102.5Q212 46 294 46Q326 46 352.5 53.5Q379 61 403 77V20Q384 5 355 -3Q326 -11 294 -11ZM127 583 233 773H306L411 583H370L269 722L169 583Z" glyph-name="ccircumflex" horiz-adv-x="452" unicode="&#265;" /><glyph d="M294 -11Q189 -11 121 63Q53 137 53 252Q53 368 121.5 444.5Q190 521 294 521Q326 521 355 513Q384 505 403 490V434Q378 450 351.5 457.5Q325 465 294 465Q214 465 164 406Q114 347 114 252Q114 159 163 102.5Q212 46 294 46Q326 46 352.5 53.5Q379 61 403 77V20Q384 5 355 -3Q326 -11 294 -11ZM270 619Q247 619 232.5 634Q218 649 218 672Q218 695 233 710.5Q248 726 270 726Q292 726 307 710.5Q322 695 322 672Q322 649 307.5 634Q293 619 270 619Z" glyph-name="cdotaccent" horiz-adv-x="452" unicode="&#267;" /><glyph d="M365 -131Q365 -173 330 -199.5Q295 -226 243 -226Q212 -226 187 -219.5Q162 -213 144 -201V-148Q170 -165 192 -172Q214 -179 243 -179Q275 -179 294.5 -166.5Q314 -154 314 -132Q314 -110 289.5 -100Q265 -90 213 -90L251 7H289L268 -50Q315 -56 340 -77Q365 -98 365 -131Z" glyph-name="cedilla" horiz-adv-x="547" unicode="&#184;" /><glyph d="M345 -77H292V84Q205 95 146 148Q72 215 72 320Q72 425 146 491Q206 544 292 555V725H345V558Q375 556 416 546Q462 534 491 518V463Q453 482 412.5 492.5Q372 503 338 503Q247 503 190 452.5Q133 402 133 320Q133 238 190 187.5Q247 137 338 137Q372 137 412.5 147.5Q453 158 491 177V121Q463 106 416 94Q375 83 345 82Z" glyph-name="cent" horiz-adv-x="589" unicode="&#162;" /><glyph d="M131 583 237 773H310L415 583H374L273 722L173 583Z" glyph-name="circumflex" horiz-adv-x="547" unicode="&#710;" /><glyph d="M143 762 237 940H312L405 762H370L274 889L179 762Z" glyph-name="circumflex.cap" horiz-adv-x="547" /><glyph d="M157 -5Q132 -5 113.5 14Q95 33 95 58Q95 84 113.5 103Q132 122 157 122Q182 122 200.5 103Q219 84 219 58Q219 33 200.5 14Q182 -5 157 -5ZM157 333Q132 333 113.5 352Q95 371 95 396Q95 422 113.5 441Q132 460 157 460Q182 460 200.5 441Q219 422 219 396Q219 371 200.5 352Q182 333 157 333Z" glyph-name="colon" horiz-adv-x="313" unicode=":" /><glyph d="M121 113H201Q201 38 169.5 -47.5Q138 -133 98 -179H52Q82 -134 101.5 -51.5Q121 31 121 113Z" glyph-name="comma" horiz-adv-x="313" unicode="," /><glyph d="M407 663Q275 663 185 574Q95 485 95 351Q95 217 185 127.5Q275 38 407 38Q539 38 628.5 127.5Q718 217 718 351Q718 484 628.5 573.5Q539 663 407 663ZM407 -11Q254 -11 150 92.5Q46 196 46 351Q46 505 150 608.5Q254 712 407 712Q560 712 663.5 609Q767 506 767 351Q767 196 663.5 92.5Q560 -11 407 -11ZM423 503Q365 503 327.5 461.5Q290 420 290 353Q290 287 327.5 246Q365 205 423 205Q451 205 474.5 211.5Q498 218 513 230V177Q499 166 475 159.5Q451 153 423 153Q340 153 284.5 210Q229 267 229 353Q229 440 284.5 497.5Q340 555 423 555Q451 555 475 548.5Q499 542 513 531V477Q498 489 474.5 496Q451 503 423 503Z" glyph-name="copyright" horiz-adv-x="813" unicode="&#169;" /><glyph d="M271 42Q309 42 343.5 57.5Q378 73 408 103V434Q388 451 357 460.5Q326 470 293 470Q211 470 162.5 407.5Q114 345 114 242Q114 149 156.5 95.5Q199 42 271 42ZM408 487V762H468V0H408V56Q382 26 343 7.5Q304 -11 263 -11Q167 -11 110 57Q53 125 53 241Q53 365 119.5 443Q186 521 291 521Q324 521 356.5 511.5Q389 502 408 487Z" glyph-name="d" horiz-adv-x="568" unicode="d" /><glyph d="M161 485 177 586 84 569H46V630H83L177 613L161 715V762H220V714L202 612L302 630H339V569H302L202 587L220 486V319H161Z" glyph-name="dagger" horiz-adv-x="384" unicode="&#8224;" /><glyph d="M339 660V594H302L207 611V468L302 486H339V421H302L203 438L220 372V319H161V371L176 437L83 421H46V486H84L173 469V610L84 594H46V660H83L176 643L161 710V762H220V709L203 642L302 660Z" glyph-name="daggerdbl" horiz-adv-x="384" unicode="&#8225;" /><glyph d="M271 42Q309 42 343.5 57.5Q378 73 408 103V434Q388 451 357 460.5Q326 470 293 470Q211 470 162.5 407.5Q114 345 114 242Q114 149 156.5 95.5Q199 42 271 42ZM408 487V762H468V0H408V56Q382 26 343 7.5Q304 -11 263 -11Q167 -11 110 57Q53 125 53 241Q53 365 119.5 443Q186 521 291 521Q324 521 356.5 511.5Q389 502 408 487ZM607 521H569L599 762H675Z" glyph-name="dcaron" horiz-adv-x="670" unicode="&#271;" /><glyph d="M408 487V620H268V670H408V762H468V670H541V620H468V0H408V56Q382 26 343 7.5Q304 -11 263 -11Q167 -11 110 57Q53 125 53 241Q53 365 119.5 443Q186 521 291 521Q324 521 356.5 511.5Q389 502 408 487ZM271 42Q309 42 343.5 57.5Q378 73 408 103V434Q388 451 357 460.5Q326 470 293 470Q211 470 162.5 407.5Q114 345 114 242Q114 149 156.5 95.5Q199 42 271 42Z" glyph-name="dcroat" horiz-adv-x="565" unicode="&#273;" /><glyph d="M198 616Q157 616 127.5 586.5Q98 557 98 517Q98 475 127.5 445Q157 415 198 415Q241 415 270.5 444.5Q300 474 300 517Q300 558 270 587Q240 616 198 616ZM198 362Q136 362 91 407.5Q46 453 46 517Q46 579 91 624Q136 669 198 669Q262 669 307.5 624.5Q353 580 353 517Q353 452 308 407Q263 362 198 362Z" glyph-name="degree" horiz-adv-x="398" unicode="&#176;" /><glyph d="M184 619Q163 619 148.5 633.5Q134 648 134 670Q134 692 148.5 707Q163 722 184 722Q205 722 219.5 707Q234 692 234 670Q234 648 219.5 633.5Q205 619 184 619ZM363 619Q341 619 326.5 633.5Q312 648 312 670Q312 692 326.5 707Q341 722 363 722Q384 722 398.5 707Q413 692 413 670Q413 648 398.5 633.5Q384 619 363 619Z" glyph-name="dieresis" horiz-adv-x="547" unicode="&#168;" /><glyph d="M179 788Q158 788 143.5 803Q129 818 129 840Q129 861 143.5 876.5Q158 892 179 892Q200 892 215 876.5Q230 861 230 840Q230 818 215.5 803Q201 788 179 788ZM367 788Q346 788 331.5 803Q317 818 317 840Q317 861 331.5 876.5Q346 892 367 892Q388 892 402.5 876.5Q417 861 417 840Q417 818 402.5 803Q388 788 367 788Z" glyph-name="dieresis.cap" horiz-adv-x="547" /><glyph d="M288 474Q261 474 242.5 492Q224 510 224 536Q224 563 242.5 582Q261 601 288 601Q314 601 333 582Q352 563 352 536Q352 511 333 492.5Q314 474 288 474ZM548 302H40V357H548ZM288 58Q261 58 242.5 76Q224 94 224 120Q224 148 242.5 167Q261 186 288 186Q314 186 333 166.5Q352 147 352 120Q352 95 333 76.5Q314 58 288 58Z" glyph-name="divide" horiz-adv-x="589" unicode="&#247;" /><glyph d="M323 -123H270V43Q214 44 158 59Q97 76 62 101V172Q107 136 164 116.5Q221 97 281 97Q359 97 407 126.5Q455 156 455 206Q455 240 425 262.5Q395 285 294 310Q236 325 209 334Q182 343 162 354Q125 374 107.5 401Q90 428 90 464Q90 532 152 575Q201 609 270 617V762H323V619Q365 617 405 607Q452 596 489 575V514Q449 541 405 554.5Q361 568 310 568Q240 568 194.5 539Q149 510 149 465Q149 434 178 413.5Q207 393 305 369Q365 354 393.5 344Q422 334 443 323Q481 302 499.5 274Q518 246 518 209Q518 138 450 90Q397 53 323 45Z" glyph-name="dollar" horiz-adv-x="589" unicode="$" /><glyph d="M273 619Q250 619 235.5 634Q221 649 221 672Q221 695 236 710.5Q251 726 273 726Q295 726 310 710.5Q325 695 325 672Q325 649 310.5 634Q296 619 273 619Z" glyph-name="dotaccent" horiz-adv-x="547" unicode="&#729;" /><glyph d="M273 792Q250 792 235.5 807Q221 822 221 845Q221 868 236 883.5Q251 899 273 899Q295 899 310 883.5Q325 868 325 845Q325 822 310.5 807Q296 792 273 792Z" glyph-name="dotaccent.cap" horiz-adv-x="547" /><glyph d="M159 0H99V510H159Z" glyph-name="dotlessi" horiz-adv-x="259" unicode="&#305;" /><glyph d="M164 105Q216 46 298 46Q343 46 375 54.5Q407 63 443 83V22Q410 5 373.5 -3Q337 -11 297 -11Q190 -11 121.5 66Q53 143 53 260Q53 371 114.5 446Q176 521 271 521Q367 521 414.5 448.5Q462 376 450 251H113Q115 162 164 105ZM271 466Q200 466 156 408Q123 365 115 302H387Q393 376 361.5 421Q330 466 271 466Z" glyph-name="e" horiz-adv-x="503" unicode="e" /><glyph d="M164 105Q216 46 298 46Q343 46 375 54.5Q407 63 443 83V22Q410 5 373.5 -3Q337 -11 297 -11Q190 -11 121.5 66Q53 143 53 260Q53 371 114.5 446Q176 521 271 521Q367 521 414.5 448.5Q462 376 450 251H113Q115 162 164 105ZM271 466Q200 466 156 408Q123 365 115 302H387Q393 376 361.5 421Q330 466 271 466ZM413 773 295 583H261L321 773Z" glyph-name="eacute" horiz-adv-x="503" unicode="&#233;" /><glyph d="M164 105Q216 46 298 46Q343 46 375 54.5Q407 63 443 83V22Q410 5 373.5 -3Q337 -11 297 -11Q190 -11 121.5 66Q53 143 53 260Q53 371 114.5 446Q176 521 271 521Q367 521 414.5 448.5Q462 376 450 251H113Q115 162 164 105ZM271 466Q200 466 156 408Q123 365 115 302H387Q393 376 361.5 421Q330 466 271 466ZM270 583Q204 583 166.5 635Q129 687 129 773H178Q182 704 204.5 671Q227 638 270 638Q313 638 336 671.5Q359 705 362 773H412Q412 687 374 635Q336 583 270 583Z" glyph-name="ebreve" horiz-adv-x="503" unicode="&#277;" /><glyph d="M164 105Q216 46 298 46Q343 46 375 54.5Q407 63 443 83V22Q410 5 373.5 -3Q337 -11 297 -11Q190 -11 121.5 66Q53 143 53 260Q53 371 114.5 446Q176 521 271 521Q367 521 414.5 448.5Q462 376 450 251H113Q115 162 164 105ZM271 466Q200 466 156 408Q123 365 115 302H387Q393 376 361.5 421Q330 466 271 466ZM179 773 279 634 380 773H421L316 583H243L137 773Z" glyph-name="ecaron" horiz-adv-x="503" unicode="&#283;" /><glyph d="M164 105Q216 46 298 46Q343 46 375 54.5Q407 63 443 83V22Q410 5 373.5 -3Q337 -11 297 -11Q190 -11 121.5 66Q53 143 53 260Q53 371 114.5 446Q176 521 271 521Q367 521 414.5 448.5Q462 376 450 251H113Q115 162 164 105ZM271 466Q200 466 156 408Q123 365 115 302H387Q393 376 361.5 421Q330 466 271 466ZM126 583 232 773H305L410 583H369L268 722L168 583Z" glyph-name="ecircumflex" horiz-adv-x="503" unicode="&#234;" /><glyph d="M164 105Q216 46 298 46Q343 46 375 54.5Q407 63 443 83V22Q410 5 373.5 -3Q337 -11 297 -11Q190 -11 121.5 66Q53 143 53 260Q53 371 114.5 446Q176 521 271 521Q367 521 414.5 448.5Q462 376 450 251H113Q115 162 164 105ZM271 466Q200 466 156 408Q123 365 115 302H387Q393 376 361.5 421Q330 466 271 466ZM184 619Q163 619 148.5 633.5Q134 648 134 670Q134 692 148.5 707Q163 722 184 722Q205 722 219.5 707Q234 692 234 670Q234 648 219.5 633.5Q205 619 184 619ZM363 619Q341 619 326.5 633.5Q312 648 312 670Q312 692 326.5 707Q341 722 363 722Q384 722 398.5 707Q413 692 413 670Q413 648 398.5 633.5Q384 619 363 619Z" glyph-name="edieresis" horiz-adv-x="503" unicode="&#235;" /><glyph d="M164 105Q216 46 298 46Q343 46 375 54.5Q407 63 443 83V22Q410 5 373.5 -3Q337 -11 297 -11Q190 -11 121.5 66Q53 143 53 260Q53 371 114.5 446Q176 521 271 521Q367 521 414.5 448.5Q462 376 450 251H113Q115 162 164 105ZM271 466Q200 466 156 408Q123 365 115 302H387Q393 376 361.5 421Q330 466 271 466ZM273 619Q250 619 235.5 634Q221 649 221 672Q221 695 236 710.5Q251 726 273 726Q295 726 310 710.5Q325 695 325 672Q325 649 310.5 634Q296 619 273 619Z" glyph-name="edotaccent" horiz-adv-x="503" unicode="&#279;" /><glyph d="M164 105Q216 46 298 46Q343 46 375 54.5Q407 63 443 83V22Q410 5 373.5 -3Q337 -11 297 -11Q190 -11 121.5 66Q53 143 53 260Q53 371 114.5 446Q176 521 271 521Q367 521 414.5 448.5Q462 376 450 251H113Q115 162 164 105ZM271 466Q200 466 156 408Q123 365 115 302H387Q393 376 361.5 421Q330 466 271 466ZM250 773 310 583H276L158 773Z" glyph-name="egrave" horiz-adv-x="503" unicode="&#232;" /><glyph d="M425 316Q450 303 468 289Q500 265 515 236Q530 207 530 172Q530 94 461 41.5Q392 -11 293 -11Q190 -11 123 41Q56 93 56 175Q56 238 107 290Q148 332 207 354Q156 380 129 415Q97 455 97 507Q97 575 155 622Q213 669 296 669Q383 669 439.5 622.5Q496 576 496 503Q496 448 456 401Q424 364 373 341Q407 326 425 316ZM156 273Q118 231 118 174Q118 116 168 77.5Q218 39 293 39Q371 39 420.5 75Q470 111 470 169Q470 212 441.5 242Q413 272 327 306L252 335Q190 311 156 273ZM435 502Q435 555 397 586.5Q359 618 296 618Q234 618 196 587Q158 556 158 507Q158 467 180 441.5Q202 416 261 391L334 358Q380 380 406 414Q435 452 435 502Z" glyph-name="eight" horiz-adv-x="589" unicode="8" /><glyph d="M157 -5Q132 -5 113.5 14Q95 33 95 58Q95 84 113.5 103Q132 122 157 122Q182 122 200.5 103Q219 84 219 58Q219 33 200.5 14Q182 -5 157 -5ZM377 -5Q352 -5 333.5 14Q315 33 315 58Q315 84 333.5 103Q352 122 377 122Q402 122 420.5 103Q439 84 439 58Q439 33 420.5 14Q402 -5 377 -5ZM597 -5Q572 -5 553.5 14Q535 33 535 58Q535 84 553.5 103Q572 122 597 122Q622 122 640.5 103Q659 84 659 58Q659 33 640.5 14Q622 -5 597 -5Z" glyph-name="ellipsis" horiz-adv-x="753" unicode="&#8230;" /><glyph d="M164 105Q216 46 298 46Q343 46 375 54.5Q407 63 443 83V22Q410 5 373.5 -3Q337 -11 297 -11Q190 -11 121.5 66Q53 143 53 260Q53 371 114.5 446Q176 521 271 521Q367 521 414.5 448.5Q462 376 450 251H113Q115 162 164 105ZM271 466Q200 466 156 408Q123 365 115 302H387Q393 376 361.5 421Q330 466 271 466ZM400 698V641H136V698Z" glyph-name="emacron" horiz-adv-x="503" unicode="&#275;" /><glyph d="M950 255H102V303H950Z" glyph-name="emdash" horiz-adv-x="1052" unicode="&#8212;" /><glyph d="M668 255H102V303H668Z" glyph-name="endash" horiz-adv-x="770" unicode="&#8211;" /><glyph d="M371 -215H295Q348 -166 377.5 -111Q407 -56 407 -4V343Q407 408 382.5 437Q358 466 304 466Q267 466 232.5 452.5Q198 439 159 409V0H99V510H159V451Q197 484 239 502.5Q281 521 321 521Q393 521 430 478Q467 435 467 351V-7Q467 -64 444 -114Q421 -164 371 -215Z" glyph-name="eng" horiz-adv-x="560" unicode="&#331;" /><glyph d="M271 466Q209 466 167 421.5Q125 377 116 302H387Q393 376 361.5 421Q330 466 271 466ZM447 -157V-201Q431 -213 407.5 -219.5Q384 -226 360 -226Q317 -226 289 -201Q261 -176 261 -138Q261 -105 281 -73Q301 -41 343 -8Q331 -10 319.5 -10.5Q308 -11 297 -11Q190 -11 121.5 66Q53 143 53 260Q53 371 114.5 446Q176 521 271 521Q367 521 414.5 448.5Q462 376 450 251H113Q115 160 166.5 103Q218 46 298 46Q343 46 375 54.5Q407 63 443 83V22Q381 -15 347.5 -56Q314 -97 314 -133Q314 -155 327.5 -167Q341 -179 366 -179Q386 -179 405.5 -173.5Q425 -168 447 -157Z" glyph-name="eogonek" horiz-adv-x="503" unicode="&#281;" /><glyph d="M548 403H40V457H548ZM548 206H40V260H548Z" glyph-name="equal" horiz-adv-x="589" unicode="=" /><glyph d="M417 753V703L338 662Q380 627 411 586Q502 466 502 289Q502 150 440.5 69.5Q379 -11 274 -11Q178 -11 115.5 60Q53 131 53 242Q53 351 120.5 424Q188 497 285 497Q342 497 389 461Q416 440 431 414Q410 500 360 563Q330 601 284 634L140 560V609L243 662Q171 706 70 742V751L136 773Q230 739 299 691ZM273 44Q355 44 400 107.5Q445 171 445 289Q445 322 441 353Q409 395 373 418Q331 445 285 445Q208 445 161 388.5Q114 332 114 242Q114 150 156 97Q198 44 273 44Z" glyph-name="eth" horiz-adv-x="555" unicode="&#240;" /><glyph d="M185 701 159 240H128L103 701ZM144 -5Q119 -5 100.5 14Q82 33 82 58Q82 84 100.5 103Q119 122 144 122Q169 122 187.5 103Q206 84 206 58Q206 33 187.5 14Q169 -5 144 -5Z" glyph-name="exclam" horiz-adv-x="288" unicode="!" /><glyph d="M103 0 128 461H159L185 0ZM144 706Q169 706 187.5 687Q206 668 206 643Q206 617 187.5 598Q169 579 144 579Q119 579 100.5 598Q82 617 82 643Q82 668 100.5 687Q119 706 144 706Z" glyph-name="exclamdown" horiz-adv-x="288" unicode="&#161;" /><glyph d="M337 457H181V0H121V457H44V510H121V539Q121 647 172 710Q223 773 309 773Q328 773 342.5 770.5Q357 768 376 762V710Q359 714 345 716Q331 718 313 718Q246 718 213.5 673Q181 628 181 534V510H337Z" glyph-name="f" horiz-adv-x="348" unicode="f" /><glyph d="M630 521Q724 521 778.5 453Q833 385 833 266Q833 146 760 67.5Q687 -11 578 -11Q530 -11 490 -0.5Q450 10 417 31V712Q401 717 386 719Q371 721 350 721Q267 721 224 672Q181 623 181 528V510H337V457H181V0H121V457H44V510H121V531Q121 642 182.5 707.5Q244 773 349 773Q382 773 416.5 766.5Q451 760 477 749V451Q507 482 548.5 501.5Q590 521 630 521ZM620 468Q581 468 543.5 452.5Q506 437 477 409V60Q497 49 522.5 43Q548 37 576 37Q661 37 716.5 101.5Q772 166 772 264Q772 359 731 413.5Q690 468 620 468Z" glyph-name="f_b" horiz-adv-x="885" /><glyph d="M926 521Q1020 521 1074.5 453Q1129 385 1129 266Q1129 146 1056 67.5Q983 -11 874 -11Q826 -11 786 -0.5Q746 10 713 31V712Q697 717 682 719Q667 721 646 721Q563 721 520 672Q477 623 477 528V510H633V457H477V0H417V457H181V0H121V457H44V510H121V524Q121 631 172.5 694Q224 757 309 757Q328 757 342.5 754.5Q357 752 376 746V694Q361 698 348 700Q335 702 313 702Q245 702 213 657.5Q181 613 181 518V510H417V531Q417 642 478.5 707.5Q540 773 645 773Q678 773 712.5 766.5Q747 760 773 749V451Q803 482 844.5 501.5Q886 521 926 521ZM916 468Q877 468 839.5 452.5Q802 437 773 409V60Q793 49 818.5 43Q844 37 872 37Q957 37 1012.5 101.5Q1068 166 1068 264Q1068 359 1027 413.5Q986 468 916 468Z" glyph-name="f_f_b" horiz-adv-x="1182" /><glyph d="M633 457H477V0H417V457H181V0H121V457H44V510H121V524Q121 631 172.5 694Q224 757 309 757Q328 757 342.5 754.5Q357 752 376 746V694Q361 698 348 700Q335 702 313 702Q245 702 213 657.5Q181 613 181 518V510H417V531Q417 642 478.5 707.5Q540 773 645 773Q678 773 712.5 766.5Q747 760 773 749V451Q811 484 853 502.5Q895 521 935 521Q1007 521 1044 478Q1081 435 1081 351V0H1021V343Q1021 408 996.5 437Q972 466 918 466Q880 466 845 452.5Q810 439 773 409V0H713V712Q697 717 682 719Q667 721 646 721Q563 721 520 672Q477 623 477 528V510H633Z" glyph-name="f_f_h" horiz-adv-x="1174" /><glyph d="M773 0H713V457H477V0H417V457H181V0H121V457H44V510H121V524Q121 631 172.5 694Q224 757 309 757Q328 757 342.5 754.5Q357 752 376 746V694Q361 698 348 700Q335 702 313 702Q245 702 213 657.5Q181 613 181 518V510H417V539Q417 647 468 710Q519 773 605 773Q624 773 638.5 770.5Q653 768 672 762V710Q655 714 641 716Q627 718 609 718Q542 718 509.5 673Q477 628 477 534V510H773ZM833 619Q811 619 796.5 633.5Q782 648 782 670Q782 692 796.5 707Q811 722 833 722Q854 722 868.5 707Q883 692 883 670Q883 648 868.5 633.5Q854 619 833 619Z" glyph-name="f_f_idieresis" horiz-adv-x="873" /><glyph d="M713 -4V457H477V0H417V457H181V0H121V457H44V510H121V524Q121 631 172.5 694Q224 757 309 757Q328 757 342.5 754.5Q357 752 376 746V694Q361 698 348 700Q335 702 313 702Q245 702 213 657.5Q181 613 181 518V510H417V529Q417 639 476 706Q535 773 630 773Q662 773 690 765.5Q718 758 737 744V689Q707 705 681.5 711.5Q656 718 630 718Q556 718 516.5 669Q477 620 477 527V510H773V-7Q773 -64 750 -114Q727 -164 677 -215H601Q654 -166 683.5 -111Q713 -56 713 -4Z" glyph-name="f_f_j" horiz-adv-x="873" /><glyph d="M1124 0H1043L773 264V0H713V712Q697 717 682 719Q667 721 646 721Q563 721 520 672Q477 623 477 528V510H633V457H477V0H417V457H181V0H121V457H44V510H121V524Q121 631 172.5 694Q224 757 309 757Q328 757 342.5 754.5Q357 752 376 746V694Q361 698 348 700Q335 702 313 702Q245 702 213 657.5Q181 613 181 518V510H417V531Q417 642 478.5 707.5Q540 773 645 773Q678 773 712.5 766.5Q747 760 773 749V292L1014 510H1097L839 281Z" glyph-name="f_f_k" horiz-adv-x="1132" /><glyph d="M477 457V0H417V457H181V0H121V457H44V510H121V524Q121 631 172.5 694Q224 757 309 757Q328 757 342.5 754.5Q357 752 376 746V694Q361 698 348 700Q335 702 313 702Q245 702 213 657.5Q181 613 181 518V510H417V539Q417 648 466 710.5Q515 773 600 773Q615 773 625 771.5Q635 770 645 767V714Q636 716 628 717Q620 718 605 718Q538 718 507.5 674Q477 630 477 534V510H633V457Z" glyph-name="f_f_short" horiz-adv-x="644" /><glyph d="M337 457H181V0H121V457H44V510H121V531Q121 642 182.5 707.5Q244 773 349 773Q382 773 416.5 766.5Q451 760 477 749V451Q515 484 557 502.5Q599 521 639 521Q711 521 748 478Q785 435 785 351V0H725V343Q725 408 700.5 437Q676 466 622 466Q584 466 549 452.5Q514 439 477 409V0H417V712Q401 717 386 719Q371 721 350 721Q267 721 224 672Q181 623 181 528V510H337Z" glyph-name="f_h" horiz-adv-x="878" /><glyph d="M477 0H417V457H181V0H121V457H44V510H121V539Q121 647 172 710Q223 773 309 773Q328 773 342.5 770.5Q357 768 376 762V710Q359 714 345 716Q331 718 313 718Q246 718 213.5 673Q181 628 181 534V510H477ZM537 619Q515 619 500.5 633.5Q486 648 486 670Q486 692 500.5 707Q515 722 537 722Q558 722 572.5 707Q587 692 587 670Q587 648 572.5 633.5Q558 619 537 619Z" glyph-name="f_idieresis" horiz-adv-x="577" /><glyph d="M417 -4V457H181V0H121V457H44V510H121V529Q121 639 180 706Q239 773 334 773Q366 773 394 765.5Q422 758 441 744V689Q411 705 385.5 711.5Q360 718 334 718Q260 718 220.5 669Q181 620 181 527V510H477V-7Q477 -64 454 -114Q431 -164 381 -215H305Q358 -166 387.5 -111Q417 -56 417 -4Z" glyph-name="f_j" horiz-adv-x="577" /><glyph d="M337 457H181V0H121V457H44V510H121V531Q121 642 182.5 707.5Q244 773 349 773Q382 773 416.5 766.5Q451 760 477 749V292L718 510H801L543 281L828 0H747L477 264V0H417V712Q401 717 386 719Q371 721 350 721Q267 721 224 672Q181 623 181 528V510H337Z" glyph-name="f_k" horiz-adv-x="836" /><glyph d="M181 457V0H121V457H44V510H121V539Q121 648 170 710.5Q219 773 304 773Q319 773 329 771.5Q339 770 349 767V714Q340 716 332 717Q324 718 309 718Q242 718 211.5 674Q181 630 181 534V510H337V457Z" glyph-name="f_short" horiz-adv-x="348" /><glyph d="M181 457V0H121V457H44V510H121V524Q121 631 172.5 694Q224 757 309 757Q328 757 342.5 754.5Q357 752 376 746V694Q361 698 348 700Q335 702 313 702Q245 702 213 657.5Q181 613 181 518V510H417V539Q417 647 468 710Q519 773 605 773Q624 773 638.5 770.5Q653 768 672 762V710Q655 714 641 716Q627 718 609 718Q542 718 509.5 673Q477 628 477 534V510H633V457H477V0H417V457Z" glyph-name="ff" horiz-adv-x="644" unicode="&#64256;" /><glyph d="M773 0H713V457H477V0H417V457H181V0H121V457H44V510H121V524Q121 631 172.5 694Q224 757 309 757Q328 757 342.5 754.5Q357 752 376 746V694Q361 698 348 700Q335 702 313 702Q245 702 213 657.5Q181 613 181 518V510H417V529Q417 639 476 706Q535 773 630 773Q662 773 690 765.5Q718 758 737 744V689Q707 705 681.5 711.5Q656 718 630 718Q556 718 516.5 669Q477 620 477 527V510H773Z" glyph-name="ffi" horiz-adv-x="873" unicode="&#64259;" /><glyph d="M633 457H477V0H417V457H181V0H121V457H44V510H121V524Q121 631 172.5 694Q224 757 309 757Q328 757 342.5 754.5Q357 752 376 746V694Q361 698 348 700Q335 702 313 702Q245 702 213 657.5Q181 613 181 518V510H417V531Q417 642 478.5 707.5Q540 773 645 773Q678 773 712.5 766.5Q747 760 773 749V0H713V712Q697 717 682 719Q667 721 646 721Q563 721 520 672Q477 623 477 528V510H633Z" glyph-name="ffl" horiz-adv-x="873" unicode="&#64260;" /><glyph d="M477 0H417V457H181V0H121V457H44V510H121V529Q121 639 180 706Q239 773 334 773Q366 773 394 765.5Q422 758 441 744V689Q411 705 385.5 711.5Q360 718 334 718Q260 718 220.5 669Q181 620 181 527V510H477Z" glyph-name="fi" horiz-adv-x="577" unicode="&#64257;" /><glyph d="M232 44Q329 44 389 88.5Q449 133 449 206Q449 281 380 319Q311 357 140 371L151 658H484V603H203L196 419Q353 405 430 352Q507 299 507 206Q507 110 430.5 49.5Q354 -11 232 -11Q180 -11 135.5 0.5Q91 12 55 34V96Q89 70 134 57Q179 44 232 44Z" glyph-name="five" horiz-adv-x="589" unicode="5" /><glyph d="M337 457H181V0H121V457H44V510H121V531Q121 642 182.5 707.5Q244 773 349 773Q382 773 416.5 766.5Q451 760 477 749V0H417V712Q401 717 386 719Q371 721 350 721Q267 721 224 672Q181 623 181 528V510H337Z" glyph-name="fl" horiz-adv-x="577" unicode="&#64258;" /><glyph d="M394 186V0H334V186H34V220Q68 326 140.5 448Q213 570 294 658H372Q286 569 218 464.5Q150 360 98 237H334V417H394V237H569V186Z" glyph-name="four" horiz-adv-x="589" unicode="4" /><glyph d="M241 174Q227 174 214 175Q191 164 180 154Q167 141 167 125Q167 108 181 98Q195 88 222 86L321 71Q412 57 451 26Q490 -5 490 -59Q490 -132 416 -179Q342 -226 238 -226Q140 -226 76 -184Q12 -142 12 -78Q12 -28 51 7Q87 39 145 54Q140 58 136 62Q116 84 116 110Q116 134 132 153Q145 169 172 184Q136 197 107 223Q54 273 54 349Q54 423 107.5 472Q161 521 241 521Q276 521 307 510H495V457H384Q425 411 425 349Q425 273 372.5 223.5Q320 174 241 174ZM107 0Q70 -29 70 -71Q70 -120 115 -147.5Q160 -175 238 -175Q320 -175 375.5 -143Q431 -111 431 -59Q431 -28 406.5 -10Q382 8 321 17L198 35Q141 25 107 0ZM241 223Q297 223 331.5 257Q366 291 366 349Q366 404 331 437.5Q296 471 241 471Q185 471 149 437.5Q113 404 113 349Q113 291 148.5 257Q184 223 241 223Z" glyph-name="g" horiz-adv-x="511" unicode="g" /><glyph d="M241 174Q227 174 214 175Q191 164 180 154Q167 141 167 125Q167 108 181 98Q195 88 222 86L321 71Q412 57 451 26Q490 -5 490 -59Q490 -132 416 -179Q342 -226 238 -226Q140 -226 76 -184Q12 -142 12 -78Q12 -28 51 7Q87 39 145 54Q140 58 136 62Q116 84 116 110Q116 134 132 153Q145 169 172 184Q136 197 107 223Q54 273 54 349Q54 423 107.5 472Q161 521 241 521Q276 521 307 510H495V457H384Q425 411 425 349Q425 273 372.5 223.5Q320 174 241 174ZM107 0Q70 -29 70 -71Q70 -120 115 -147.5Q160 -175 238 -175Q320 -175 375.5 -143Q431 -111 431 -59Q431 -28 406.5 -10Q382 8 321 17L198 35Q141 25 107 0ZM241 223Q297 223 331.5 257Q366 291 366 349Q366 404 331 437.5Q296 471 241 471Q185 471 149 437.5Q113 404 113 349Q113 291 148.5 257Q184 223 241 223ZM251 583Q185 583 147.5 635Q110 687 110 773H159Q163 704 185.5 671Q208 638 251 638Q294 638 317 671.5Q340 705 343 773H393Q393 687 355 635Q317 583 251 583Z" glyph-name="gbreve" horiz-adv-x="511" unicode="&#287;" /><glyph d="M241 174Q227 174 214 175Q191 164 180 154Q167 141 167 125Q167 108 181 98Q195 88 222 86L321 71Q412 57 451 26Q490 -5 490 -59Q490 -132 416 -179Q342 -226 238 -226Q140 -226 76 -184Q12 -142 12 -78Q12 -28 51 7Q87 39 145 54Q140 58 136 62Q116 84 116 110Q116 134 132 153Q145 169 172 184Q136 197 107 223Q54 273 54 349Q54 423 107.5 472Q161 521 241 521Q276 521 307 510H495V457H384Q425 411 425 349Q425 273 372.5 223.5Q320 174 241 174ZM107 0Q70 -29 70 -71Q70 -120 115 -147.5Q160 -175 238 -175Q320 -175 375.5 -143Q431 -111 431 -59Q431 -28 406.5 -10Q382 8 321 17L198 35Q141 25 107 0ZM241 223Q297 223 331.5 257Q366 291 366 349Q366 404 331 437.5Q296 471 241 471Q185 471 149 437.5Q113 404 113 349Q113 291 148.5 257Q184 223 241 223ZM108 583 214 773H287L392 583H351L250 722L150 583Z" glyph-name="gcircumflex" horiz-adv-x="511" unicode="&#285;" /><glyph d="M241 174Q227 174 214 175Q191 164 180 154Q167 141 167 125Q167 108 181 98Q195 88 222 86L321 71Q412 57 451 26Q490 -5 490 -59Q490 -132 416 -179Q342 -226 238 -226Q140 -226 76 -184Q12 -142 12 -78Q12 -28 51 7Q87 39 145 54Q140 58 136 62Q116 84 116 110Q116 134 132 153Q145 169 172 184Q136 197 107 223Q54 273 54 349Q54 423 107.5 472Q161 521 241 521Q276 521 307 510H495V457H384Q425 411 425 349Q425 273 372.5 223.5Q320 174 241 174ZM107 0Q70 -29 70 -71Q70 -120 115 -147.5Q160 -175 238 -175Q320 -175 375.5 -143Q431 -111 431 -59Q431 -28 406.5 -10Q382 8 321 17L198 35Q141 25 107 0ZM241 223Q297 223 331.5 257Q366 291 366 349Q366 404 331 437.5Q296 471 241 471Q185 471 149 437.5Q113 404 113 349Q113 291 148.5 257Q184 223 241 223ZM251 619Q228 619 213.5 634Q199 649 199 672Q199 695 214 710.5Q229 726 251 726Q273 726 288 710.5Q303 695 303 672Q303 649 288.5 634Q274 619 251 619Z" glyph-name="gdotaccent" horiz-adv-x="511" unicode="&#289;" /><glyph d="M507 578Q426 525 396 492Q366 459 367 424Q367 404 382.5 382Q398 360 448 316Q515 257 537 220Q559 183 559 145Q559 77 510 33Q461 -11 390 -11Q349 -11 314 -1Q279 9 245 30V97Q282 67 314 55Q346 43 390 43Q440 43 470 70Q500 97 500 140Q500 171 482 200Q464 229 406 279Q347 329 329 358Q311 387 311 418Q311 461 337 497.5Q363 534 449 596Q445 648 408 684.5Q371 721 316 721Q246 721 202.5 670.5Q159 620 159 537V0H99V545Q99 643 162 708Q225 773 315 773Q400 773 452 719Q504 665 507 578Z" glyph-name="germandbls" horiz-adv-x="603" unicode="&#223;" /><glyph d="M291 773 351 583H317L199 773Z" glyph-name="grave" horiz-adv-x="547" unicode="`" /><glyph d="M282 940 349 762H314L198 940Z" glyph-name="grave.cap" horiz-adv-x="547" /><glyph d="M53 177 488 337 53 499V558L536 375V300L53 118Z" glyph-name="greater" horiz-adv-x="589" unicode="&gt;" /><glyph d="M483 451 344 251 483 51H432L259 251L432 451ZM270 451 131 251 270 51H219L46 251L219 451Z" glyph-name="guillemotleft" horiz-adv-x="529" unicode="&#171;" /><glyph d="M97 451 270 251 97 51H46L184 251L46 451ZM310 451 483 251 310 51H259L397 251L259 451Z" glyph-name="guillemotright" horiz-adv-x="529" unicode="&#187;" /><glyph d="M270 451 131 251 270 51H219L46 251L219 451Z" glyph-name="guilsinglleft" horiz-adv-x="316" unicode="&#8249;" /><glyph d="M97 451 270 251 97 51H46L184 251L46 451Z" glyph-name="guilsinglright" horiz-adv-x="316" unicode="&#8250;" /><glyph d="M159 451Q197 484 239 502.5Q281 521 321 521Q393 521 430 478Q467 435 467 351V0H407V343Q407 408 382.5 437Q358 466 304 466Q267 466 232.5 452.5Q198 439 159 409V0H99V762H159V451Z" glyph-name="h" horiz-adv-x="560" unicode="h" /><glyph d="M156 451Q194 484 236 502.5Q278 521 318 521Q390 521 427 478Q464 435 464 351V0H404V343Q404 408 379.5 437Q355 466 301 466Q264 466 229.5 452.5Q195 439 156 409V0H96V620H24V670H96V762H156V670H297V620H156Z" glyph-name="hbar" horiz-adv-x="558" unicode="&#295;" /><glyph d="M159 451Q197 484 239 502.5Q281 521 321 521Q393 521 430 478Q467 435 467 351V0H407V343Q407 408 382.5 437Q358 466 304 466Q267 466 232.5 452.5Q198 439 159 409V0H99V762H159V451ZM152 787 246 965H321L414 787H379L283 914L188 787Z" glyph-name="hcircumflex" horiz-adv-x="560" unicode="&#293;" /><glyph d="M151 583H116L176 773H261ZM316 583H280L340 773H426Z" glyph-name="hungarumlaut" horiz-adv-x="547" unicode="&#733;" /><glyph d="M151 762H118L183 940H267ZM313 762H280L344 940H428Z" glyph-name="hungarumlaut.cap" horiz-adv-x="547" /><glyph d="M486 251H102V308H486Z" glyph-name="hyphen" horiz-adv-x="589" unicode="-" /><glyph d="M159 0H99V510H159ZM129 619Q106 619 91.5 634Q77 649 77 672Q77 695 92 710.5Q107 726 129 726Q151 726 166 710.5Q181 695 181 672Q181 649 166.5 634Q152 619 129 619Z" glyph-name="i" horiz-adv-x="259" unicode="i" /><glyph d="M159 0H99V510H159ZM129 619Q106 619 91.5 634Q77 649 77 672Q77 695 92 710.5Q107 726 129 726Q151 726 166 710.5Q181 695 181 672Q181 649 166.5 634Q152 619 129 619Z" glyph-name="i.dot" horiz-adv-x="259" /><glyph d="M159 0H99V510H159ZM262 773 144 583H110L170 773Z" glyph-name="iacute" horiz-adv-x="259" unicode="&#237;" /><glyph d="M159 0H99V510H159ZM129 583Q63 583 25.5 635Q-12 687 -12 773H37Q41 704 63.5 671Q86 638 129 638Q172 638 195 671.5Q218 705 221 773H271Q271 687 233 635Q195 583 129 583Z" glyph-name="ibreve" horiz-adv-x="259" unicode="&#301;" /><glyph d="M159 0H99V510H159ZM-14 583 92 773H165L270 583H229L128 722L28 583Z" glyph-name="icircumflex" horiz-adv-x="259" unicode="&#238;" /><glyph d="M159 0H99V510H159ZM40 619Q19 619 4.5 633.5Q-10 648 -10 670Q-10 692 4.5 707Q19 722 40 722Q61 722 75.5 707Q90 692 90 670Q90 648 75.5 633.5Q61 619 40 619ZM219 619Q197 619 182.5 633.5Q168 648 168 670Q168 692 182.5 707Q197 722 219 722Q240 722 254.5 707Q269 692 269 670Q269 648 254.5 633.5Q240 619 219 619Z" glyph-name="idieresis" horiz-adv-x="259" unicode="&#239;" /><glyph d="M159 0H99V510H159ZM89 773 149 583H115L-3 773Z" glyph-name="igrave" horiz-adv-x="259" unicode="&#236;" /><glyph d="M159 0H99V510H159ZM261 698V641H-3V698Z" glyph-name="imacron" horiz-adv-x="259" unicode="&#299;" /><glyph d="M129 619Q106 619 91.5 634Q77 649 77 672Q77 695 92 710.5Q107 726 129 726Q151 726 166 710.5Q181 695 181 672Q181 649 166.5 634Q152 619 129 619ZM105 0H99V510H159V0Q105 -41 82 -71.5Q59 -102 59 -133Q59 -155 72.5 -167Q86 -179 111 -179Q131 -179 150.5 -173.5Q170 -168 192 -157V-201Q176 -213 152.5 -219.5Q129 -226 105 -226Q62 -226 34 -201Q6 -176 6 -138Q6 -105 30.5 -70.5Q55 -36 105 0Z" glyph-name="iogonek" horiz-adv-x="259" unicode="&#303;" /><glyph d="M159 0H99V510H159ZM196 598Q177 598 159 610.5Q141 623 111 661Q88 689 77.5 697.5Q67 706 57 706Q34 706 17.5 676.5Q1 647 -6 596H-51Q-48 664 -15 713.5Q18 763 63 763Q82 763 100 750.5Q118 738 148 699Q170 671 180.5 662.5Q191 654 201 654Q224 654 241 683.5Q258 713 265 764H310Q306 696 273 647Q240 598 196 598Z" glyph-name="itilde" horiz-adv-x="259" unicode="&#297;" /><glyph d="M129 619Q106 619 91.5 634Q77 649 77 672Q77 695 92 710.5Q107 726 129 726Q151 726 166 710.5Q181 695 181 672Q181 649 166.5 634Q152 619 129 619ZM99 -4V510H159V-7Q159 -64 136 -114Q113 -164 63 -215H-13Q40 -166 69.5 -111Q99 -56 99 -4Z" glyph-name="j" horiz-adv-x="259" unicode="j" /><glyph d="M99 -4V510H159V-7Q159 -64 136 -114Q113 -164 63 -215H-13Q40 -166 69.5 -111Q99 -56 99 -4ZM-10 583 96 773H169L274 583H233L132 722L32 583Z" glyph-name="jcircumflex" horiz-adv-x="259" unicode="&#309;" /><glyph d="M159 0H99V762H159V292L400 510H483L225 281L510 0H429L159 264Z" glyph-name="k" horiz-adv-x="518" unicode="k" /><glyph d="M159 0H99V510H159V292L400 510H483L225 281L510 0H429L159 264Z" glyph-name="kgreenlandic" horiz-adv-x="518" unicode="&#312;" /><glyph d="M159 0H99V762H159Z" glyph-name="l" horiz-adv-x="259" unicode="l" /><glyph d="M159 0H99V762H159ZM260 976 143 798H109L175 976Z" glyph-name="lacute" horiz-adv-x="259" unicode="&#314;" /><glyph d="M159 0H99V762H159ZM295 521H257L287 762H363Z" glyph-name="lcaron" horiz-adv-x="360" unicode="&#318;" /><glyph d="M159 0H99V762H159ZM301 352Q278 352 263.5 367Q249 382 249 405Q249 428 264 443.5Q279 459 301 459Q323 459 338 443.5Q353 428 353 405Q353 382 338.5 367Q324 352 301 352Z" glyph-name="ldot" horiz-adv-x="358" unicode="&#320;" /><glyph d="M536 118 53 300V375L536 558V499L101 337L536 177Z" glyph-name="less" horiz-adv-x="589" unicode="&lt;" /><glyph d="M18 351 130 414V762H190V444L309 512V457L190 390V0H130V359L18 295Z" glyph-name="lslash" horiz-adv-x="327" unicode="&#322;" /><glyph d="M159 409V0H99V510H159V451Q194 483 234 502Q274 521 311 521Q358 521 390.5 502Q423 483 440 445Q473 477 520 499Q567 521 609 521Q679 521 715 477.5Q751 434 751 351V0H691V337Q691 405 667.5 435.5Q644 466 593 466Q557 466 523.5 452Q490 438 455 409V0H395V337Q395 405 371.5 435.5Q348 466 297 466Q261 466 227.5 452.5Q194 439 159 409Z" glyph-name="m" horiz-adv-x="844" unicode="m" /><glyph d="M405 698V641H141V698Z" glyph-name="macron" horiz-adv-x="547" unicode="&#175;" /><glyph d="M417 844V788H129V844Z" glyph-name="macron.cap" horiz-adv-x="547" /><glyph d="M548 302H40V357H548Z" glyph-name="minus" horiz-adv-x="589" unicode="&#8722;" /><glyph d="M532 519 337 324 531 131 492 93 299 286 106 93 69 131 261 323 66 519 104 557 300 362 494 557Z" glyph-name="multiply" horiz-adv-x="594" unicode="&#215;" /><glyph d="M159 451Q197 484 239 502.5Q281 521 321 521Q393 521 430 478Q467 435 467 351V0H407V343Q407 408 382.5 437Q358 466 304 466Q267 466 232.5 452.5Q198 439 159 409V0H99V510H159V451Z" glyph-name="n" horiz-adv-x="560" unicode="n" /><glyph d="M159 451Q197 484 239 502.5Q281 521 321 521Q393 521 430 478Q467 435 467 351V0H407V343Q407 408 382.5 437Q358 466 304 466Q267 466 232.5 452.5Q198 439 159 409V0H99V510H159V451ZM410 773 292 583H258L318 773Z" glyph-name="nacute" horiz-adv-x="560" unicode="&#324;" /><glyph d="M159 451Q197 484 239 502.5Q281 521 321 521Q393 521 430 478Q467 435 467 351V0H407V343Q407 408 382.5 437Q358 466 304 466Q267 466 232.5 452.5Q198 439 159 409V0H99V510H159V451ZM184 773 284 634 385 773H426L321 583H248L142 773Z" glyph-name="ncaron" horiz-adv-x="560" unicode="&#328;" /><glyph d="M209 -11Q168 -11 132 -2Q96 7 74 23V75Q97 60 132 52Q167 44 209 44Q328 44 396 130Q459 211 464 344Q426 295 378 270Q328 243 268 243Q178 243 121.5 301Q65 359 65 453Q65 541 128 605Q191 669 281 669Q386 669 455.5 583Q525 497 525 365Q525 198 438.5 93.5Q352 -11 209 -11ZM414 547Q364 616 282 616Q213 616 168.5 570Q124 524 124 451Q124 381 167.5 338.5Q211 296 281 296Q334 296 381 323Q426 348 463 396Q456 488 414 547Z" glyph-name="nine" horiz-adv-x="589" unicode="9" /><glyph d="M159 451Q197 484 239 502.5Q281 521 321 521Q393 521 430 478Q467 435 467 351V0H407V343Q407 408 382.5 437Q358 466 304 466Q267 466 232.5 452.5Q198 439 159 409V0H99V510H159V451ZM350 598Q331 598 313 610.5Q295 623 265 661Q242 689 231.5 697.5Q221 706 211 706Q188 706 171.5 676.5Q155 647 148 596H103Q106 664 139 713.5Q172 763 217 763Q236 763 254 750.5Q272 738 302 699Q324 671 334.5 662.5Q345 654 355 654Q378 654 395 683.5Q412 713 419 764H464Q460 696 427 647Q394 598 350 598Z" glyph-name="ntilde" horiz-adv-x="560" unicode="&#241;" /><glyph d="M68 249H202L230 409H90L99 461H239L273 658H328L293 461H462L496 658H550L516 461H650L641 409H507L479 249H619L610 197H470L436 0H382L416 197H247L213 0H159L193 197H60ZM256 249H425L453 409H284Z" glyph-name="numbersign" horiz-adv-x="710" unicode="#" /><glyph d="M273 466Q200 466 157 408Q114 350 114 255Q114 160 157 102Q200 44 273 44Q346 44 389 102Q432 160 432 255Q432 350 389 408Q346 466 273 466ZM273 521Q369 521 431 446Q493 371 493 255Q493 139 431 64Q369 -11 273 -11Q177 -11 115 64Q53 139 53 255Q53 371 115 446Q177 521 273 521Z" glyph-name="o" horiz-adv-x="546" unicode="o" /><glyph d="M273 466Q200 466 157 408Q114 350 114 255Q114 160 157 102Q200 44 273 44Q346 44 389 102Q432 160 432 255Q432 350 389 408Q346 466 273 466ZM273 521Q369 521 431 446Q493 371 493 255Q493 139 431 64Q369 -11 273 -11Q177 -11 115 64Q53 139 53 255Q53 371 115 446Q177 521 273 521ZM408 773 290 583H256L316 773Z" glyph-name="oacute" horiz-adv-x="546" unicode="&#243;" /><glyph d="M273 466Q200 466 157 408Q114 350 114 255Q114 160 157 102Q200 44 273 44Q346 44 389 102Q432 160 432 255Q432 350 389 408Q346 466 273 466ZM273 521Q369 521 431 446Q493 371 493 255Q493 139 431 64Q369 -11 273 -11Q177 -11 115 64Q53 139 53 255Q53 371 115 446Q177 521 273 521ZM273 583Q207 583 169.5 635Q132 687 132 773H181Q185 704 207.5 671Q230 638 273 638Q316 638 339 671.5Q362 705 365 773H415Q415 687 377 635Q339 583 273 583Z" glyph-name="obreve" horiz-adv-x="546" unicode="&#335;" /><glyph d="M273 466Q200 466 157 408Q114 350 114 255Q114 160 157 102Q200 44 273 44Q346 44 389 102Q432 160 432 255Q432 350 389 408Q346 466 273 466ZM273 521Q369 521 431 446Q493 371 493 255Q493 139 431 64Q369 -11 273 -11Q177 -11 115 64Q53 139 53 255Q53 371 115 446Q177 521 273 521ZM131 583 237 773H310L415 583H374L273 722L173 583Z" glyph-name="ocircumflex" horiz-adv-x="546" unicode="&#244;" /><glyph d="M273 466Q200 466 157 408Q114 350 114 255Q114 160 157 102Q200 44 273 44Q346 44 389 102Q432 160 432 255Q432 350 389 408Q346 466 273 466ZM273 521Q369 521 431 446Q493 371 493 255Q493 139 431 64Q369 -11 273 -11Q177 -11 115 64Q53 139 53 255Q53 371 115 446Q177 521 273 521ZM184 619Q163 619 148.5 633.5Q134 648 134 670Q134 692 148.5 707Q163 722 184 722Q205 722 219.5 707Q234 692 234 670Q234 648 219.5 633.5Q205 619 184 619ZM363 619Q341 619 326.5 633.5Q312 648 312 670Q312 692 326.5 707Q341 722 363 722Q384 722 398.5 707Q413 692 413 670Q413 648 398.5 633.5Q384 619 363 619Z" glyph-name="odieresis" horiz-adv-x="546" unicode="&#246;" /><glyph d="M273 521Q339 521 392 483Q435 452 461 401Q486 453 530 484Q582 521 648 521Q744 521 791 448.5Q838 376 826 251H489Q491 162 541 105Q593 46 674 46Q720 46 751.5 54.5Q783 63 819 83V22Q786 5 749.5 -3Q713 -11 673 -11Q598 -11 539 28Q491 61 463 114Q436 59 391 27Q339 -11 273 -11Q177 -11 115 64Q53 139 53 255Q53 371 115 446Q177 521 273 521ZM273 466Q200 466 157 408Q114 350 114 255Q114 160 157 102Q200 44 273 44Q346 44 389.5 102Q433 160 433 255Q433 350 389.5 408Q346 466 273 466ZM763 302Q769 376 738 421Q707 466 647 466Q576 466 532 408Q499 365 491 302Z" glyph-name="oe" horiz-adv-x="878" unicode="&#339;" /><glyph d="M268 -138Q268 -98 299 -58Q330 -18 399 29L418 1Q366 -38 343.5 -69Q321 -100 321 -133Q321 -155 334.5 -167Q348 -179 373 -179Q392 -179 412.5 -173.5Q433 -168 454 -157V-201Q438 -212 414 -219Q390 -226 366 -226Q323 -226 295.5 -201Q268 -176 268 -138Z" glyph-name="ogonek" horiz-adv-x="547" unicode="&#731;" /><glyph d="M273 466Q200 466 157 408Q114 350 114 255Q114 160 157 102Q200 44 273 44Q346 44 389 102Q432 160 432 255Q432 350 389 408Q346 466 273 466ZM273 521Q369 521 431 446Q493 371 493 255Q493 139 431 64Q369 -11 273 -11Q177 -11 115 64Q53 139 53 255Q53 371 115 446Q177 521 273 521ZM253 773 313 583H279L161 773Z" glyph-name="ograve" horiz-adv-x="546" unicode="&#242;" /><glyph d="M273 466Q200 466 157 408Q114 350 114 255Q114 160 157 102Q200 44 273 44Q346 44 389 102Q432 160 432 255Q432 350 389 408Q346 466 273 466ZM273 521Q369 521 431 446Q493 371 493 255Q493 139 431 64Q369 -11 273 -11Q177 -11 115 64Q53 139 53 255Q53 371 115 446Q177 521 273 521ZM198 583H163L223 773H308ZM363 583H327L387 773H473Z" glyph-name="ohungarumlaut" horiz-adv-x="546" unicode="&#337;" /><glyph d="M273 466Q200 466 157 408Q114 350 114 255Q114 160 157 102Q200 44 273 44Q346 44 389 102Q432 160 432 255Q432 350 389 408Q346 466 273 466ZM273 521Q369 521 431 446Q493 371 493 255Q493 139 431 64Q369 -11 273 -11Q177 -11 115 64Q53 139 53 255Q53 371 115 446Q177 521 273 521ZM405 698V641H141V698Z" glyph-name="omacron" horiz-adv-x="546" unicode="&#333;" /><glyph d="M526 55V0H99V55H292V589L97 523V570L305 663H354V55Z" glyph-name="one" horiz-adv-x="589" unicode="1" /><glyph d="M324 339V292H63V339H170V632L58 599V643L193 701H225V339Z" glyph-name="onesuperior" horiz-adv-x="367" unicode="&#185;" /><glyph d="M370 197H98V246H370ZM140 428Q140 404 158.5 388Q177 372 206 372Q231 372 254 380.5Q277 389 302 407V508Q221 509 180.5 489.5Q140 470 140 428ZM356 364Q357 358 360 348Q363 338 364 334H311L304 372Q272 346 245.5 335.5Q219 325 189 325Q143 325 113 352.5Q83 380 83 424Q83 489 138 521.5Q193 554 302 553V575Q302 620 283 640.5Q264 661 224 661Q193 661 162 651.5Q131 642 103 624V672Q123 688 159 699.5Q195 711 221 711Q288 711 321 680.5Q354 650 354 588V396Q354 385 354.5 377.5Q355 370 356 364Z" glyph-name="ordfeminine" horiz-adv-x="466" unicode="&#170;" /><glyph d="M236 660Q184 660 153.5 621.5Q123 583 123 519Q123 455 153.5 417Q184 379 236 379Q287 379 317 417.5Q347 456 347 519Q347 583 317 621.5Q287 660 236 660ZM236 712Q309 712 356 658Q403 604 403 519Q403 435 355.5 381Q308 327 236 327Q164 327 116 381.5Q68 436 68 519Q68 603 115.5 657.5Q163 712 236 712ZM369 198H101V247H369Z" glyph-name="ordmasculine" horiz-adv-x="471" unicode="&#186;" /><glyph d="M273 521Q340 521 390 484L435 556H491L426 451Q428 449 431 446Q493 371 493 255Q493 139 431 64Q369 -11 273 -11Q208 -11 159 23L116 -46H62L124 53Q119 58 115 64Q53 139 53 255Q53 371 115 446Q177 521 273 521ZM273 468Q200 468 157 409.5Q114 351 114 255Q114 161 155 103L362 438Q325 468 273 468ZM273 42Q346 42 389 100.5Q432 159 432 255Q432 344 394 401L187 69Q223 42 273 42Z" glyph-name="oslash" horiz-adv-x="546" unicode="&#248;" /><glyph d="M273 521Q340 521 390 484L435 556H491L426 451Q428 449 431 446Q493 371 493 255Q493 139 431 64Q369 -11 273 -11Q208 -11 159 23L116 -46H62L124 53Q119 58 115 64Q53 139 53 255Q53 371 115 446Q177 521 273 521ZM273 468Q200 468 157 409.5Q114 351 114 255Q114 161 155 103L362 438Q325 468 273 468ZM273 42Q346 42 389 100.5Q432 159 432 255Q432 344 394 401L187 69Q223 42 273 42ZM403 773 285 583H251L311 773Z" glyph-name="oslashacute" horiz-adv-x="546" unicode="&#511;" /><glyph d="M273 466Q200 466 157 408Q114 350 114 255Q114 160 157 102Q200 44 273 44Q346 44 389 102Q432 160 432 255Q432 350 389 408Q346 466 273 466ZM273 521Q369 521 431 446Q493 371 493 255Q493 139 431 64Q369 -11 273 -11Q177 -11 115 64Q53 139 53 255Q53 371 115 446Q177 521 273 521ZM343 598Q324 598 306 610.5Q288 623 258 661Q235 689 224.5 697.5Q214 706 204 706Q181 706 164.5 676.5Q148 647 141 596H96Q99 664 132 713.5Q165 763 210 763Q229 763 247 750.5Q265 738 295 699Q317 671 327.5 662.5Q338 654 348 654Q371 654 388 683.5Q405 713 412 764H457Q453 696 420 647Q387 598 343 598Z" glyph-name="otilde" horiz-adv-x="546" unicode="&#245;" /><glyph d="M302 468Q263 468 225.5 452.5Q188 437 159 409V73Q178 56 207.5 46.5Q237 37 272 37Q354 37 404 99.5Q454 162 454 264Q454 359 413 413.5Q372 468 302 468ZM159 25V-215H99V510H159V451Q189 482 230.5 501.5Q272 521 312 521Q406 521 460.5 453Q515 385 515 266Q515 143 447.5 66Q380 -11 274 -11Q243 -11 211.5 -1Q180 9 159 25Z" glyph-name="p" horiz-adv-x="568" unicode="p" /><glyph d="M259 701H269V351H259Q157 351 96.5 397.5Q36 444 36 523Q36 602 98 651.5Q160 701 259 701ZM428 640V115Q428 25 405.5 -43Q383 -111 332 -169H263Q318 -109 341.5 -41.5Q365 26 365 117V701H565V640Z" glyph-name="paragraph" horiz-adv-x="595" unicode="&#182;" /><glyph d="M141 319Q141 194 202.5 77Q264 -40 369 -124H303Q200 -41 139.5 76Q79 193 79 319Q79 444 140 562Q201 680 303 762H369Q264 678 202.5 561Q141 444 141 319Z" glyph-name="parenleft" horiz-adv-x="407" unicode="(" /><glyph d="M266 319Q266 444 204.5 561Q143 678 38 762H104Q206 680 267 562Q328 444 328 319Q328 193 267.5 76Q207 -41 104 -124H38Q143 -40 204.5 77Q266 194 266 319Z" glyph-name="parenright" horiz-adv-x="407" unicode=")" /><glyph d="M146 -11 594 669H652L205 -11ZM187 326Q122 326 81 374Q40 422 40 498Q40 574 81 621.5Q122 669 187 669Q252 669 292.5 621.5Q333 574 333 498Q333 422 292.5 374Q252 326 187 326ZM187 629Q145 629 126 600Q107 571 107 498Q107 425 126 395Q145 365 187 365Q229 365 247.5 395Q266 425 266 498Q266 571 247.5 600Q229 629 187 629ZM613 332Q678 332 719 284Q760 236 760 160Q760 84 719 36.5Q678 -11 613 -11Q548 -11 507 37Q466 85 466 160Q466 236 507 284Q548 332 613 332ZM613 29Q655 29 673.5 57.5Q692 86 692 160Q692 234 673.5 263Q655 292 613 292Q571 292 552.5 262Q534 232 534 160Q534 88 552.5 58.5Q571 29 613 29Z" glyph-name="percent" horiz-adv-x="800" unicode="%" /><glyph d="M157 -5Q132 -5 113.5 14Q95 33 95 58Q95 84 113.5 103Q132 122 157 122Q182 122 200.5 103Q219 84 219 58Q219 33 200.5 14Q182 -5 157 -5Z" glyph-name="period" horiz-adv-x="313" unicode="." /><glyph d="M164 215Q139 215 120.5 234Q102 253 102 278Q102 304 120.5 323Q139 342 164 342Q189 342 207.5 323Q226 304 226 278Q226 253 207.5 234Q189 215 164 215Z" glyph-name="periodcentered" horiz-adv-x="328" unicode="&#183;" /><glyph d="M548 302H322V76H267V302H40V357H267V584H322V357H548Z" glyph-name="plus" horiz-adv-x="589" unicode="+" /><glyph d="M271 42Q309 42 343.5 57.5Q378 73 408 103V446Q388 458 362.5 463.5Q337 469 305 469Q226 469 170 404.5Q114 340 114 242Q114 149 156.5 95.5Q199 42 271 42ZM305 521Q348 521 389.5 510.5Q431 500 468 479V-215H408V56Q382 26 343 7.5Q304 -11 263 -11Q167 -11 110 57Q53 125 53 241Q53 362 126 441.5Q199 521 305 521Z" glyph-name="q" horiz-adv-x="568" unicode="q" /><glyph d="M248 712Q338 712 392 666Q446 620 446 542Q446 505 430 473Q414 441 360 387Q311 337 291.5 305.5Q272 274 264 240H211Q218 283 239 321.5Q260 360 314 419Q358 467 371 492Q384 517 384 542Q384 597 349 626.5Q314 656 248 656Q196 656 141.5 631Q87 606 46 564V628Q85 666 140 689Q195 712 248 712ZM245 -5Q220 -5 201.5 14Q183 33 183 58Q183 84 201.5 103Q220 122 245 122Q270 122 288.5 103Q307 84 307 58Q307 33 288.5 14Q270 -5 245 -5Z" glyph-name="question" horiz-adv-x="492" unicode="?" /><glyph d="M244 -11Q154 -11 100 35Q46 81 46 159Q46 196 62 228Q78 260 132 314Q181 364 200.5 395.5Q220 427 228 461H281Q274 418 253 379.5Q232 341 178 282Q134 234 121 209Q108 184 108 159Q108 104 143 74.5Q178 45 244 45Q296 45 350.5 70Q405 95 446 137V73Q407 35 352 12Q297 -11 244 -11ZM247 706Q272 706 290.5 687Q309 668 309 643Q309 617 290.5 598Q272 579 247 579Q222 579 203.5 598Q185 617 185 643Q185 668 203.5 687Q222 706 247 706Z" glyph-name="questiondown" horiz-adv-x="492" unicode="&#191;" /><glyph d="M266 496H226V762H308ZM113 496H73V762H155Z" glyph-name="quotedbl" horiz-adv-x="373" unicode="&quot;" /><glyph d="M82 113H152Q152 22 134 -34Q116 -90 70 -145H24Q56 -99 69 -47Q82 5 82 113ZM239 113H309Q309 22 291 -34Q273 -90 227 -145H181Q213 -99 226 -47Q239 5 239 113Z" glyph-name="quotedblbase" horiz-adv-x="386" unicode="&#8222;" /><glyph d="M305 504H234Q234 594 252 650Q270 706 316 762H363Q331 717 318 665.5Q305 614 305 504ZM148 504H77Q77 594 95 650Q113 706 159 762H206Q174 717 161 665.5Q148 614 148 504Z" glyph-name="quotedblleft" horiz-adv-x="386" unicode="&#8220;" /><glyph d="M82 762H152Q152 670 134 614Q116 558 70 504H24Q56 550 69 601.5Q82 653 82 762ZM239 762H309Q309 670 291 614Q273 558 227 504H181Q213 550 226 601.5Q239 653 239 762Z" glyph-name="quotedblright" horiz-adv-x="230" unicode="&#8221;" /><glyph d="M148 504H77Q77 594 95 650Q113 706 159 762H206Q174 717 161 665.5Q148 614 148 504Z" glyph-name="quoteleft" horiz-adv-x="230" unicode="&#8216;" /><glyph d="M82 762H152Q152 670 134 614Q116 558 70 504H24Q56 550 69 601.5Q82 653 82 762Z" glyph-name="quoteright" horiz-adv-x="230" unicode="&#8217;" /><glyph d="M82 113H152Q152 22 134 -34Q116 -90 70 -145H24Q56 -99 69 -47Q82 5 82 113Z" glyph-name="quotesinglbase" horiz-adv-x="230" unicode="&#8218;" /><glyph d="M113 496H73V762H155Z" glyph-name="quotesingle" horiz-adv-x="220" unicode="'" /><glyph d="M159 372V0H99V510H159V418Q214 482 259 502Q304 522 357 514V447Q301 459 253.5 441.5Q206 424 159 372Z" glyph-name="r" horiz-adv-x="385" unicode="r" /><glyph d="M159 372V0H99V510H159V418Q214 482 259 502Q304 522 357 514V447Q301 459 253.5 441.5Q206 424 159 372ZM354 773 236 583H202L262 773Z" glyph-name="racute" horiz-adv-x="385" unicode="&#341;" /><glyph d="M159 372V0H99V510H159V418Q214 482 259 502Q304 522 357 514V447Q301 459 253.5 441.5Q206 424 159 372ZM126 773 226 634 327 773H368L263 583H190L84 773Z" glyph-name="rcaron" horiz-adv-x="385" unicode="&#345;" /><glyph d="M407 663Q275 663 185 574Q95 485 95 351Q95 217 185 127.5Q275 38 407 38Q539 38 628.5 127.5Q718 217 718 351Q718 484 628.5 573.5Q539 663 407 663ZM407 -11Q254 -11 150 92.5Q46 196 46 351Q46 505 150 608.5Q254 712 407 712Q560 712 663.5 609Q767 506 767 351Q767 196 663.5 92.5Q560 -11 407 -11ZM447 339 581 165H514L394 323H341V165H283V552H395Q463 552 500 524.5Q537 497 537 446Q537 410 511.5 380.5Q486 351 447 339ZM388 506H341V369H409Q440 376 458 395Q476 414 476 442Q476 474 454 490Q432 506 388 506Z" glyph-name="registered" horiz-adv-x="813" unicode="&#174;" /><glyph d="M248 643Q274 643 293 661.5Q312 680 312 706Q312 732 293 750.5Q274 769 248 769Q222 769 203 750.5Q184 732 184 706Q184 680 203 661.5Q222 643 248 643ZM248 814Q292 814 324 782Q356 750 356 706Q356 662 324 630.5Q292 599 248 599Q203 599 171 630.5Q139 662 139 706Q139 750 171.5 782Q204 814 248 814Z" glyph-name="ring" horiz-adv-x="547" unicode="&#730;" /><glyph d="M255 933Q223 933 201 910.5Q179 888 179 856Q179 824 201 802Q223 780 255 780Q287 780 309 802Q331 824 331 856Q331 888 309 910.5Q287 933 255 933ZM255 732Q205 732 167.5 769.5Q130 807 130 856Q130 906 167.5 943Q205 980 255 980Q305 980 342.5 943Q380 906 380 856Q380 807 342.5 769.5Q305 732 255 732Z" glyph-name="ring.cap" horiz-adv-x="547" /><glyph d="M199 -11Q156 -11 114.5 0Q73 11 43 30V97Q79 70 116 57Q153 44 199 44Q257 44 293.5 68Q330 92 330 132Q330 162 308.5 183Q287 204 215 231Q170 247 149 258Q128 269 113 281Q89 300 77.5 324.5Q66 349 66 381Q66 442 113.5 481.5Q161 521 234 521Q267 521 296 513Q325 505 355 487V426Q326 447 297.5 456.5Q269 466 235 466Q186 466 155 443Q124 420 124 383Q124 354 145.5 333Q167 312 239 285Q284 269 304.5 258.5Q325 248 340 236Q364 217 376 192.5Q388 168 388 137Q388 71 334 30Q280 -11 199 -11Z" glyph-name="s" horiz-adv-x="437" unicode="s" /><glyph d="M199 -11Q156 -11 114.5 0Q73 11 43 30V97Q79 70 116 57Q153 44 199 44Q257 44 293.5 68Q330 92 330 132Q330 162 308.5 183Q287 204 215 231Q170 247 149 258Q128 269 113 281Q89 300 77.5 324.5Q66 349 66 381Q66 442 113.5 481.5Q161 521 234 521Q267 521 296 513Q325 505 355 487V426Q326 447 297.5 456.5Q269 466 235 466Q186 466 155 443Q124 420 124 383Q124 354 145.5 333Q167 312 239 285Q284 269 304.5 258.5Q325 248 340 236Q364 217 376 192.5Q388 168 388 137Q388 71 334 30Q280 -11 199 -11ZM357 773 239 583H205L265 773Z" glyph-name="sacute" horiz-adv-x="437" unicode="&#347;" /><glyph d="M199 -11Q156 -11 114.5 0Q73 11 43 30V97Q79 70 116 57Q153 44 199 44Q257 44 293.5 68Q330 92 330 132Q330 162 308.5 183Q287 204 215 231Q170 247 149 258Q128 269 113 281Q89 300 77.5 324.5Q66 349 66 381Q66 442 113.5 481.5Q161 521 234 521Q267 521 296 513Q325 505 355 487V426Q326 447 297.5 456.5Q269 466 235 466Q186 466 155 443Q124 420 124 383Q124 354 145.5 333Q167 312 239 285Q284 269 304.5 258.5Q325 248 340 236Q364 217 376 192.5Q388 168 388 137Q388 71 334 30Q280 -11 199 -11ZM129 779 229 640 330 779H371L266 589H193L87 779Z" glyph-name="scaron" horiz-adv-x="437" unicode="&#353;" /><glyph d="M199 -11Q156 -11 114.5 0Q73 11 43 30V97Q79 70 116 57Q153 44 199 44Q257 44 293.5 68Q330 92 330 132Q330 162 308.5 183Q287 204 215 231Q170 247 149 258Q128 269 113 281Q89 300 77.5 324.5Q66 349 66 381Q66 442 113.5 481.5Q161 521 234 521Q267 521 296 513Q325 505 355 487V426Q326 447 297.5 456.5Q269 466 235 466Q186 466 155 443Q124 420 124 383Q124 354 145.5 333Q167 312 239 285Q284 269 304.5 258.5Q325 248 340 236Q364 217 376 192.5Q388 168 388 137Q388 71 334 30Q280 -11 199 -11ZM87 583 193 773H266L371 583H330L229 722L129 583Z" glyph-name="scircumflex" horiz-adv-x="437" unicode="&#349;" /><glyph d="M309 660Q257 660 222 634.5Q187 609 187 569Q187 533 203.5 508Q220 483 272 441L426 310Q472 271 485.5 246.5Q499 222 499 191Q499 170 488.5 151Q478 132 462 123L440 145Q454 171 443.5 197Q433 223 390 261L214 414Q167 454 148 486Q129 518 129 558Q129 626 181 669Q233 712 310 712Q352 712 387.5 702.5Q423 693 459 671V607Q417 636 383.5 648Q350 660 309 660ZM272 -121Q325 -121 359.5 -96Q394 -71 394 -31Q394 5 377.5 30Q361 55 309 97L155 229Q108 268 95 292.5Q82 317 82 347Q82 368 92.5 387Q103 406 119 415L141 394Q127 367 137.5 341Q148 315 191 278L367 125Q415 84 433.5 52.5Q452 21 452 -19Q452 -87 399.5 -130.5Q347 -174 271 -174Q229 -174 193.5 -164.5Q158 -155 122 -133V-68Q164 -97 197.5 -109Q231 -121 272 -121Z" glyph-name="section" horiz-adv-x="581" unicode="&#167;" /><glyph d="M121 113H201Q201 38 169.5 -47.5Q138 -133 98 -179H52Q82 -134 101.5 -51.5Q121 31 121 113ZM157 333Q132 333 113.5 352Q95 371 95 396Q95 422 113.5 441Q132 460 157 460Q182 460 200.5 441Q219 422 219 396Q219 371 200.5 352Q182 333 157 333Z" glyph-name="semicolon" horiz-adv-x="313" unicode=";" /><glyph d="M52 658H520V616Q492 476 397.5 291Q303 106 201 0H131Q234 106 333 290Q427 466 461 603H52Z" glyph-name="seven" horiz-adv-x="589" unicode="7" /><glyph d="M380 669Q421 669 457 660Q493 651 515 635V583Q492 598 457 606Q422 614 380 614Q261 614 193 527Q129 447 125 314Q162 362 210 388Q261 415 321 415Q411 415 467.5 357Q524 299 524 205Q524 117 461 53Q398 -11 308 -11Q203 -11 133.5 75Q64 161 64 293Q64 460 150.5 564.5Q237 669 380 669ZM175 111Q225 42 307 42Q376 42 420.5 88Q465 134 465 207Q465 277 421.5 319.5Q378 362 308 362Q255 362 207 335Q163 309 126 261Q132 170 175 111Z" glyph-name="six" horiz-adv-x="589" unicode="6" /><glyph d="M75 -124H18L301 762H360Z" glyph-name="slash" horiz-adv-x="378" unicode="/" /><glyph glyph-name="space" horiz-adv-x="282" unicode=" " /><glyph d="M53 43 129 230H38L57 281H399L381 230H188L116 55H554V0H53ZM326 542Q316 527 305 508Q296 492 265 427H436L417 376H91L110 427H207Q264 558 317 611Q375 669 455 669Q483 669 510 663.5Q537 658 565 647V591Q535 604 511 609.5Q487 615 455 615Q414 615 383 597.5Q352 580 326 542Z" glyph-name="sterling" horiz-adv-x="589" unicode="&#163;" /><glyph d="M34 457V510H119V630H179V510H362V457H179V133Q179 88 201 65.5Q223 43 266 43Q298 43 321.5 47.5Q345 52 379 65V13Q352 1 324 -5Q296 -11 266 -11Q194 -11 156.5 25Q119 61 119 131V457Z" glyph-name="t" horiz-adv-x="417" unicode="t" /><glyph d="M31 457V510H116V630H176V510H359V457H176V322H357V269H176V133Q176 88 198 65.5Q220 43 263 43Q295 43 318.5 47.5Q342 52 376 65V13Q349 1 321 -5Q293 -11 263 -11Q191 -11 153.5 25Q116 61 116 131V269H31V322H116V457Z" glyph-name="tbar" horiz-adv-x="424" unicode="&#359;" /><glyph d="M34 457V510H119V630H179V510H362V457H179V133Q179 88 201 65.5Q223 43 266 43Q298 43 321.5 47.5Q345 52 379 65V13Q352 1 324 -5Q296 -11 266 -11Q194 -11 156.5 25Q119 61 119 131V457ZM288 573H250L280 814H356Z" glyph-name="tcaron" horiz-adv-x="417" unicode="&#357;" /><glyph d="M327 -131Q327 -173 292 -199.5Q257 -226 205 -226Q174 -226 149 -219.5Q124 -213 106 -201V-148Q132 -165 154 -172Q176 -179 205 -179Q237 -179 256.5 -166.5Q276 -154 276 -132Q276 -110 251.5 -100Q227 -90 175 -90L208 -4Q177 5 156 25Q119 61 119 131V457H34V510H119V630H179V510H362V457H179V133Q179 88 201 65.5Q223 43 266 43Q298 43 321.5 47.5Q345 52 379 65V13Q352 1 324 -5Q296 -11 266 -11Q255 -11 244 -10L230 -50Q277 -56 302 -77Q327 -98 327 -131Z" glyph-name="tcommaaccent" horiz-adv-x="417" unicode="&#355;" /><glyph d="M302 468Q263 468 225.5 452.5Q188 437 159 409V73Q178 56 207.5 46.5Q237 37 272 37Q354 37 404 99.5Q454 162 454 264Q454 359 413 413.5Q372 468 302 468ZM274 -11Q243 -11 211.5 -1Q180 9 159 25V-215H99V762H159V451Q189 482 230.5 501.5Q272 521 312 521Q406 521 460.5 453Q515 385 515 266Q515 143 447.5 66Q380 -11 274 -11Z" glyph-name="thorn" horiz-adv-x="568" unicode="&#254;" /><glyph d="M227 44Q327 44 390.5 88.5Q454 133 454 204Q454 272 394 306Q334 340 211 340V384L404 603H88V658H471V599L277 384Q383 380 449.5 332Q516 284 516 204Q516 110 434 49.5Q352 -11 227 -11Q175 -11 129.5 0.5Q84 12 47 34V96Q82 70 128 57Q174 44 227 44Z" glyph-name="three" horiz-adv-x="589" unicode="3" /><glyph d="M148 334Q203 334 236 357.5Q269 381 269 420Q269 459 235 476.5Q201 494 125 494V537L251 650H56V701H298V636L182 535Q245 532 284.5 502Q324 472 324 423Q324 364 273.5 324.5Q223 285 151 285Q118 285 90 292Q62 299 39 312V368Q63 351 91 342.5Q119 334 148 334Z" glyph-name="threesuperior" horiz-adv-x="367" unicode="&#179;" /><glyph d="M340 598Q321 598 303 610.5Q285 623 255 661Q232 689 221.5 697.5Q211 706 201 706Q178 706 161.5 676.5Q145 647 138 596H93Q96 664 129 713.5Q162 763 207 763Q226 763 244 750.5Q262 738 292 699Q314 671 324.5 662.5Q335 654 345 654Q368 654 385 683.5Q402 713 409 764H454Q450 696 417 647Q384 598 340 598Z" glyph-name="tilde" horiz-adv-x="547" unicode="&#732;" /><glyph d="M340 763Q321 763 303 775.5Q285 788 255 827Q232 855 221.5 863.5Q211 872 201 872Q178 872 161.5 842.5Q145 813 138 762H93Q96 830 129 879Q162 928 207 928Q226 928 244 915.5Q262 903 292 865Q314 837 324.5 828.5Q335 820 345 820Q368 820 385 849.5Q402 879 409 930H454Q450 861 417.5 812Q385 763 340 763Z" glyph-name="tilde.cap" horiz-adv-x="547" /><glyph d="M156 652H58V701H308V652H210V357H156ZM612 654 552 430H509L449 654H444L425 357H371L397 701H480L530 510H537L587 701H665L691 357H638L619 654Z" glyph-name="trademark" horiz-adv-x="773" unicode="&#8482;" /><glyph d="M346 319Q392 367 412 404.5Q432 442 432 479Q432 539 392 574Q352 609 281 609Q225 609 172 585Q119 561 76 517V582Q118 622 172.5 645.5Q227 669 281 669Q378 669 436 617.5Q494 566 494 479Q494 432 470.5 387Q447 342 392 287Q364 258 305 206Q246 154 226 135L139 55H525V0H62V52L210 190Q217 197 269 245Q321 293 346 319Z" glyph-name="two" horiz-adv-x="589" unicode="2" /><glyph d="M244 583Q244 617 224.5 636Q205 655 169 655Q136 655 102.5 640Q69 625 44 600V658Q70 681 104.5 695Q139 709 173 709Q232 709 267.5 676.5Q303 644 303 589Q303 549 275.5 508.5Q248 468 154 385L104 343H322V292H36V343L128 425Q209 501 226.5 528.5Q244 556 244 583Z" glyph-name="twosuperior" horiz-adv-x="367" unicode="&#178;" /><glyph d="M459 0H399V59Q363 27 320.5 8Q278 -11 238 -11Q167 -11 130 32.5Q93 76 93 159V510H153V173Q153 104 177.5 73.5Q202 43 255 43Q291 43 326 57.5Q361 72 399 103V510H459Z" glyph-name="u" horiz-adv-x="558" unicode="u" /><glyph d="M459 0H399V59Q363 27 320.5 8Q278 -11 238 -11Q167 -11 130 32.5Q93 76 93 159V510H153V173Q153 104 177.5 73.5Q202 43 255 43Q291 43 326 57.5Q361 72 399 103V510H459ZM406 773 288 583H254L314 773Z" glyph-name="uacute" horiz-adv-x="558" unicode="&#250;" /><glyph d="M459 0H399V59Q363 27 320.5 8Q278 -11 238 -11Q167 -11 130 32.5Q93 76 93 159V510H153V173Q153 104 177.5 73.5Q202 43 255 43Q291 43 326 57.5Q361 72 399 103V510H459ZM275 583Q209 583 171.5 635Q134 687 134 773H183Q187 704 209.5 671Q232 638 275 638Q318 638 341 671.5Q364 705 367 773H417Q417 687 379 635Q341 583 275 583Z" glyph-name="ubreve" horiz-adv-x="558" unicode="&#365;" /><glyph d="M459 0H399V59Q363 27 320.5 8Q278 -11 238 -11Q167 -11 130 32.5Q93 76 93 159V510H153V173Q153 104 177.5 73.5Q202 43 255 43Q291 43 326 57.5Q361 72 399 103V510H459ZM132 583 238 773H311L416 583H375L274 722L174 583Z" glyph-name="ucircumflex" horiz-adv-x="558" unicode="&#251;" /><glyph d="M459 0H399V59Q363 27 320.5 8Q278 -11 238 -11Q167 -11 130 32.5Q93 76 93 159V510H153V173Q153 104 177.5 73.5Q202 43 255 43Q291 43 326 57.5Q361 72 399 103V510H459ZM186 619Q165 619 150.5 633.5Q136 648 136 670Q136 692 150.5 707Q165 722 186 722Q207 722 221.5 707Q236 692 236 670Q236 648 221.5 633.5Q207 619 186 619ZM365 619Q343 619 328.5 633.5Q314 648 314 670Q314 692 328.5 707Q343 722 365 722Q386 722 400.5 707Q415 692 415 670Q415 648 400.5 633.5Q386 619 365 619Z" glyph-name="udieresis" horiz-adv-x="558" unicode="&#252;" /><glyph d="M459 0H399V59Q363 27 320.5 8Q278 -11 238 -11Q167 -11 130 32.5Q93 76 93 159V510H153V173Q153 104 177.5 73.5Q202 43 255 43Q291 43 326 57.5Q361 72 399 103V510H459ZM252 773 312 583H278L160 773Z" glyph-name="ugrave" horiz-adv-x="558" unicode="&#249;" /><glyph d="M459 0H399V59Q363 27 320.5 8Q278 -11 238 -11Q167 -11 130 32.5Q93 76 93 159V510H153V173Q153 104 177.5 73.5Q202 43 255 43Q291 43 326 57.5Q361 72 399 103V510H459ZM198 583H163L223 773H308ZM363 583H327L387 773H473Z" glyph-name="uhungarumlaut" horiz-adv-x="558" unicode="&#369;" /><glyph d="M459 0H399V59Q363 27 320.5 8Q278 -11 238 -11Q167 -11 130 32.5Q93 76 93 159V510H153V173Q153 104 177.5 73.5Q202 43 255 43Q291 43 326 57.5Q361 72 399 103V510H459ZM407 698V641H143V698Z" glyph-name="umacron" horiz-adv-x="558" unicode="&#363;" /><glyph d="M486 -105H102V-48H486Z" glyph-name="underscore" horiz-adv-x="589" unicode="_" /><glyph glyph-name="uni000D" horiz-adv-x="282" unicode="" /><glyph d="M218 -37H285Q285 -92 256.5 -147.5Q228 -203 190 -226H142Q175 -195 196.5 -142Q218 -89 218 -37Z" glyph-name="uni00200326" horiz-adv-x="455" /><glyph d="M217 584H149Q149 638 177.5 693.5Q206 749 244 773H292Q259 741 238 688Q217 635 217 584Z" glyph-name="uni00200326.alt" horiz-adv-x="455" /><glyph glyph-name="uni00A0" horiz-adv-x="282" unicode="&#160;" /><glyph d="M540 322V12Q506 1 466 -5Q426 -11 388 -11Q244 -11 148.5 86.5Q53 184 53 343Q53 504 147 607.5Q241 711 383 711Q432 711 474 698.5Q516 686 541 664V600Q512 627 471 641.5Q430 656 383 656Q268 656 192.5 567.5Q117 479 117 343Q117 207 194.5 125.5Q272 44 388 44Q419 44 437.5 46.5Q456 49 478 56V322ZM344 -37H411Q411 -92 382.5 -147.5Q354 -203 316 -226H268Q301 -195 322.5 -142Q344 -89 344 -37Z" glyph-name="uni0122" horiz-adv-x="614" unicode="&#290;" /><glyph d="M241 174Q227 174 214 175Q191 164 180 154Q167 141 167 125Q167 108 181 98Q195 88 222 86L321 71Q412 57 451 26Q490 -5 490 -59Q490 -132 416 -179Q342 -226 238 -226Q140 -226 76 -184Q12 -142 12 -78Q12 -28 51 7Q87 39 145 54Q140 58 136 62Q116 84 116 110Q116 134 132 153Q145 169 172 184Q136 197 107 223Q54 273 54 349Q54 423 107.5 472Q161 521 241 521Q276 521 307 510H495V457H384Q425 411 425 349Q425 273 372.5 223.5Q320 174 241 174ZM107 0Q70 -29 70 -71Q70 -120 115 -147.5Q160 -175 238 -175Q320 -175 375.5 -143Q431 -111 431 -59Q431 -28 406.5 -10Q382 8 321 17L198 35Q141 25 107 0ZM241 223Q297 223 331.5 257Q366 291 366 349Q366 404 331 437.5Q296 471 241 471Q185 471 149 437.5Q113 404 113 349Q113 291 148.5 257Q184 223 241 223ZM285 584H217Q217 638 245.5 693.5Q274 749 312 773H360Q327 741 306 688Q285 635 285 584Z" glyph-name="uni0123" horiz-adv-x="511" unicode="&#291;" /><glyph d="M173 0H111V700H173V379L489 700H568L236 372L594 0H514L173 350ZM267 -37H334Q334 -92 305.5 -147.5Q277 -203 239 -226H191Q224 -195 245.5 -142Q267 -89 267 -37Z" glyph-name="uni0136" horiz-adv-x="598" unicode="&#310;" /><glyph d="M159 0H99V762H159V292L400 510H483L225 281L510 0H429L159 264ZM258 -37H325Q325 -92 296.5 -147.5Q268 -203 230 -226H182Q215 -195 236.5 -142Q258 -89 258 -37Z" glyph-name="uni0137" horiz-adv-x="518" unicode="&#311;" /><glyph d="M173 700V55H501V0H111V700ZM271 -37H338Q338 -92 309.5 -147.5Q281 -203 243 -226H195Q228 -195 249.5 -142Q271 -89 271 -37Z" glyph-name="uni013B" horiz-adv-x="553" unicode="&#315;" /><glyph d="M159 0H99V762H159ZM95 -37H162Q162 -92 133.5 -147.5Q105 -203 67 -226H19Q52 -195 73.5 -142Q95 -89 95 -37Z" glyph-name="uni013C" horiz-adv-x="259" unicode="&#316;" /><glyph d="M609 0H552L174 597H171V0H111V700H176L546 111H549V700H609ZM332 -37H399Q399 -92 370.5 -147.5Q342 -203 304 -226H256Q289 -195 310.5 -142Q332 -89 332 -37Z" glyph-name="uni0145" horiz-adv-x="721" unicode="&#325;" /><glyph d="M159 451Q197 484 239 502.5Q281 521 321 521Q393 521 430 478Q467 435 467 351V0H407V343Q407 408 382.5 437Q358 466 304 466Q267 466 232.5 452.5Q198 439 159 409V0H99V510H159V451ZM249 -37H316Q316 -92 287.5 -147.5Q259 -203 221 -226H173Q206 -195 227.5 -142Q249 -89 249 -37Z" glyph-name="uni0146" horiz-adv-x="560" unicode="&#326;" /><glyph d="M380 316 609 0H534L318 302H173V0H111V700H273Q396 700 461.5 649Q527 598 527 502Q527 436 488 387Q449 338 380 316ZM277 645H173V356H334Q395 370 429 408Q463 446 463 503Q463 570 414 607.5Q365 645 277 645ZM300 -37H367Q367 -92 338.5 -147.5Q310 -203 272 -226H224Q257 -195 278.5 -142Q300 -89 300 -37Z" glyph-name="uni0156" horiz-adv-x="632" unicode="&#342;" /><glyph d="M159 372V0H99V510H159V418Q214 482 259 502Q304 522 357 514V447Q301 459 253.5 441.5Q206 424 159 372ZM92 -37H159Q159 -92 130.5 -147.5Q102 -203 64 -226H16Q49 -195 70.5 -142Q92 -89 92 -37Z" glyph-name="uni0157" horiz-adv-x="385" unicode="&#343;" /><glyph d="M357 -131Q357 -173 322 -199.5Q287 -226 235 -226Q204 -226 179 -219.5Q154 -213 136 -201V-148Q162 -165 184 -172Q206 -179 235 -179Q267 -179 286.5 -166.5Q306 -154 306 -132Q306 -110 281.5 -100Q257 -90 205 -90L236 -11Q183 -10 124 7Q64 26 35 53V119Q76 82 131.5 62Q187 42 240 42Q328 42 377 80Q426 118 426 185Q426 216 412 241Q398 266 369 287Q353 298 330.5 309.5Q308 321 259 342Q203 365 178 378.5Q153 392 134 406Q103 430 88 459.5Q73 489 73 526Q73 608 136.5 659.5Q200 711 292 711Q339 711 380.5 699Q422 687 457 663V599Q418 629 376 644Q334 659 292 659Q222 659 178.5 623Q135 587 135 528Q135 490 163.5 462Q192 434 287 394Q347 369 375 353.5Q403 338 423 321Q456 294 472 260.5Q488 227 488 185Q488 98 419 43Q361 -2 275 -9L260 -50Q307 -56 332 -77Q357 -98 357 -131Z" glyph-name="uni015E" horiz-adv-x="540" unicode="&#350;" /><glyph d="M288 -131Q288 -173 253 -199.5Q218 -226 166 -226Q135 -226 110 -219.5Q85 -213 67 -201V-148Q93 -165 115 -172Q137 -179 166 -179Q198 -179 217.5 -166.5Q237 -154 237 -132Q237 -110 212.5 -100Q188 -90 136 -90L167 -9Q140 -7 114 0Q73 11 43 30V97Q79 70 116 57Q153 44 199 44Q257 44 293.5 68Q330 92 330 132Q330 162 308.5 183Q287 204 215 231Q170 247 149 258Q128 269 113 281Q89 300 77.5 324.5Q66 349 66 381Q66 442 113.5 481.5Q161 521 234 521Q267 521 296 513Q325 505 355 487V426Q326 447 297.5 456.5Q269 466 235 466Q186 466 155 443Q124 420 124 383Q124 354 145.5 333Q167 312 239 285Q284 269 304.5 258.5Q325 248 340 236Q364 217 376 192.5Q388 168 388 137Q388 71 334 30Q282 -9 205 -11L191 -50Q238 -56 263 -77Q288 -98 288 -131Z" glyph-name="uni015F" horiz-adv-x="437" unicode="&#351;" /><glyph d="M310 417 304 389H445L433 334H108L121 389H245L250 416Q274 540 330 604.5Q386 669 471 669Q489 669 507.5 666Q526 663 542 657V607Q526 611 509 613Q492 615 471 615Q409 615 368.5 565.5Q328 516 310 417ZM190 118 211 229H273L252 120Q229 -6 174.5 -69Q120 -132 34 -132Q18 -132 -0.5 -128.5Q-19 -125 -33 -119V-69Q-17 -74 -2 -76Q13 -78 36 -78Q97 -78 134.5 -30Q172 18 190 118Z" glyph-name="uni0192" horiz-adv-x="589" unicode="&#402;" /><glyph d="M240 -11Q185 -11 124.5 7.5Q64 26 35 53V119Q76 82 131.5 62Q187 42 240 42Q328 42 377 80Q426 118 426 185Q426 216 412 241Q398 266 369 287Q353 298 330.5 309.5Q308 321 259 342Q203 365 178 378.5Q153 392 134 406Q103 430 88 459.5Q73 489 73 526Q73 608 136.5 659.5Q200 711 292 711Q339 711 380.5 699Q422 687 457 663V599Q418 629 376 644Q334 659 292 659Q222 659 178.5 623Q135 587 135 528Q135 490 163.5 462Q192 434 287 394Q347 369 375 353.5Q403 338 423 321Q456 294 472 260.5Q488 227 488 185Q488 98 419 43.5Q350 -11 240 -11ZM225 -37H292Q292 -92 263.5 -147.5Q235 -203 197 -226H149Q182 -195 203.5 -142Q225 -89 225 -37Z" glyph-name="uni0218" horiz-adv-x="540" unicode="&#536;" /><glyph d="M199 -11Q156 -11 114.5 0Q73 11 43 30V97Q79 70 116 57Q153 44 199 44Q257 44 293.5 68Q330 92 330 132Q330 162 308.5 183Q287 204 215 231Q170 247 149 258Q128 269 113 281Q89 300 77.5 324.5Q66 349 66 381Q66 442 113.5 481.5Q161 521 234 521Q267 521 296 513Q325 505 355 487V426Q326 447 297.5 456.5Q269 466 235 466Q186 466 155 443Q124 420 124 383Q124 354 145.5 333Q167 312 239 285Q284 269 304.5 258.5Q325 248 340 236Q364 217 376 192.5Q388 168 388 137Q388 71 334 30Q280 -11 199 -11ZM182 -37H249Q249 -92 220.5 -147.5Q192 -203 154 -226H106Q139 -195 160.5 -142Q182 -89 182 -37Z" glyph-name="uni0219" horiz-adv-x="437" unicode="&#537;" /><glyph d="M261 645H32V700H553V645H323V0H261ZM259 -37H326Q326 -92 297.5 -147.5Q269 -203 231 -226H183Q216 -195 237.5 -142Q259 -89 259 -37Z" glyph-name="uni021A" horiz-adv-x="586" unicode="&#538;" /><glyph d="M34 457V510H119V630H179V510H362V457H179V133Q179 88 201 65.5Q223 43 266 43Q298 43 321.5 47.5Q345 52 379 65V13Q352 1 324 -5Q296 -11 266 -11Q194 -11 156.5 25Q119 61 119 131V457ZM218 -37H285Q285 -92 256.5 -147.5Q228 -203 190 -226H142Q175 -195 196.5 -142Q218 -89 218 -37Z" glyph-name="uni021B" horiz-adv-x="417" unicode="&#539;" /><glyph d="M99 -4V510H159V-7Q159 -64 136 -114Q113 -164 63 -215H-13Q40 -166 69.5 -111Q99 -56 99 -4Z" glyph-name="uni0237" horiz-adv-x="259" unicode="&#567;" /><glyph d="M269 557H155V367H269Q351 367 390 391Q429 415 429 465Q429 515 393.5 536Q358 557 269 557ZM472 208Q472 263 434 290Q396 317 319 317H155V103H319Q397 103 434.5 129Q472 155 472 208ZM536 209Q536 133 482 92Q428 51 327 51H317V-123H264V51H96V609H264V762H317V608Q405 604 448 570Q491 536 491 471Q491 425 458.5 391Q426 357 376 349Q452 341 494 304.5Q536 268 536 209Z" glyph-name="uni0E3F" horiz-adv-x="589" unicode="&#3647;" /><glyph d="M375 288V-132H363Q254 -132 185.5 -94Q117 -56 117 4Q117 49 148.5 77Q180 105 233 105Q245 105 256.5 103Q268 101 278 97V58Q271 60 260 61Q249 62 241 62Q208 62 190 48Q172 34 172 8Q172 -29 216 -54Q260 -79 319 -81V288H154V338H319V355Q319 408 281.5 438.5Q244 469 163 480Q163 561 220.5 615Q278 669 365 669Q403 669 439 660Q475 651 509 633V579Q473 597 437.5 605.5Q402 614 365 614Q306 614 268.5 589Q231 564 222 520Q292 511 333.5 467.5Q375 424 375 360V338H515V288Z" glyph-name="uni17DB" horiz-adv-x="589" unicode="&#6107;" /><glyph d="M341 -77H291L333 82Q312 82 292 85Q272 88 252 93L207 -77H157L206 109Q143 139 107.5 194.5Q72 250 72 320Q72 419 140 485Q208 551 318 557L362 725H412L367 556Q385 553 405.5 548Q426 543 446 537L496 725H546L478 468Q437 486 403.5 494.5Q370 503 338 503Q247 503 190 452.5Q133 402 133 320Q133 238 190 187.5Q247 137 338 137Q372 137 412.5 147.5Q453 158 491 177V121Q472 111 443 101.5Q414 92 384 87Z" glyph-name="uni20A1" horiz-adv-x="589" unicode="&#8353;" /><glyph d="M293 390 225 0H163L134 227H5V274H128L115 373H5V420H109L78 658H134L197 75H200L267 478H325L391 75H395L458 658H511L481 420H584V373H475L462 274H584V227H456L427 0H365L296 390Z" glyph-name="uni20A9" horiz-adv-x="589" unicode="&#8361;" /><glyph d="M54 0V658H208Q312 658 357 613.5Q402 569 402 466V162H346V466Q346 544 316 574.5Q286 605 208 605H110V0ZM548 658V192Q548 89 503 44.5Q458 0 354 0H200V479H256V53H354Q432 53 462 83.5Q492 114 492 192V658Z" glyph-name="uni20AA" horiz-adv-x="589" unicode="&#8362;" /><glyph d="M278 170Q313 170 345.5 185Q378 200 414 233V369Q393 384 360.5 392.5Q328 401 292 401Q224 401 187.5 370Q151 339 151 280Q151 229 186 199.5Q221 170 278 170ZM414 128V187Q386 158 345.5 139Q305 120 265 120Q190 120 140 164.5Q90 209 90 279Q90 356 146 403.5Q202 451 288 451Q322 451 356.5 441.5Q391 432 414 416V538H194V590H414V658H472V590H572V538H472V128ZM477 0H109V52H477Z" glyph-name="uni20AB" horiz-adv-x="589" unicode="&#8363;" /><glyph d="M521 371V316H306L565 0H489L215 343L465 658H539L302 371ZM184 658V0H124V316H20V371H124V658Z" glyph-name="uni20AD" horiz-adv-x="589" unicode="&#8365;" /><glyph d="M484 429 105 299V353L263 407V603H44V658H545V603H325V428L484 483ZM325 224V0H263V203L105 149V203L484 333V279Z" glyph-name="uni20AE" horiz-adv-x="589" unicode="&#8366;" /><glyph d="M389 434Q389 519 355 562.5Q321 606 254 606H204V262H254Q321 262 355 305.5Q389 349 389 434ZM254 210H204V0H146V332H17V384H146V484H19V536H146V658H254Q322 658 367 627Q412 596 431 536H572V484H443Q444 472 445 459.5Q446 447 446 434Q446 421 445 408.5Q444 396 443 384H572V332H431Q412 272 367 241Q322 210 254 210Z" glyph-name="uni20B1" horiz-adv-x="589" unicode="&#8369;" /><glyph d="M546 427V376H45V427H387Q402 444 410.5 466.5Q419 489 419 511Q419 562 386 589Q353 616 291 616Q248 616 205.5 602.5Q163 589 129 563V623Q161 645 203.5 657Q246 669 291 669Q378 669 427 628Q476 587 476 512Q476 491 468 468Q460 445 446 427ZM498 111V49Q473 23 421.5 6Q370 -11 323 -11Q236 -11 182.5 35Q129 81 129 157Q129 174 133.5 193Q138 212 147 230H45V281H546V230H204Q196 214 191.5 195.5Q187 177 187 158Q187 103 222.5 72.5Q258 42 323 42Q371 42 417 60Q463 78 498 111Z" glyph-name="uni20B4" horiz-adv-x="589" unicode="&#8372;" /><glyph d="M545 603H44V658H545ZM263 457H44V512H545V457H325V0H263Z" glyph-name="uni20B8" horiz-adv-x="589" unicode="&#8376;" /><glyph d="M270 274 505 0H432L205 260H48L68 314H229Q283 326 317 356.5Q351 387 359 432H47L67 486H360Q350 541 298.5 572.5Q247 604 167 604H49L69 658H542L522 604H323Q364 587 387.5 557Q411 527 416 486H542L522 432H416Q408 376 369.5 335Q331 294 270 274Z" glyph-name="uni20B9" horiz-adv-x="589" unicode="&#8377;" /><glyph d="M307 -138Q307 -98 338 -58Q359 -30 399 1V59Q363 27 320.5 8Q278 -11 238 -11Q167 -11 130 32.5Q93 76 93 159V510H153V173Q153 104 177.5 73.5Q202 43 255 43Q291 43 326 57.5Q361 72 399 103V510H459V0H455Q404 -38 382 -69Q360 -100 360 -133Q360 -155 373.5 -167Q387 -179 412 -179Q431 -179 451.5 -173.5Q472 -168 493 -157V-201Q477 -212 453 -219Q429 -226 405 -226Q362 -226 334.5 -201Q307 -176 307 -138Z" glyph-name="uogonek" horiz-adv-x="558" unicode="&#371;" /><glyph d="M459 0H399V59Q363 27 320.5 8Q278 -11 238 -11Q167 -11 130 32.5Q93 76 93 159V510H153V173Q153 104 177.5 73.5Q202 43 255 43Q291 43 326 57.5Q361 72 399 103V510H459ZM276 643Q302 643 321 661.5Q340 680 340 706Q340 732 321 750.5Q302 769 276 769Q250 769 231 750.5Q212 732 212 706Q212 680 231 661.5Q250 643 276 643ZM276 814Q320 814 352 782Q384 750 384 706Q384 662 352 630.5Q320 599 276 599Q231 599 199 630.5Q167 662 167 706Q167 750 199.5 782Q232 814 276 814Z" glyph-name="uring" horiz-adv-x="558" unicode="&#367;" /><glyph d="M459 0H399V59Q363 27 320.5 8Q278 -11 238 -11Q167 -11 130 32.5Q93 76 93 159V510H153V173Q153 104 177.5 73.5Q202 43 255 43Q291 43 326 57.5Q361 72 399 103V510H459ZM342 598Q323 598 305 610.5Q287 623 257 661Q234 689 223.5 697.5Q213 706 203 706Q180 706 163.5 676.5Q147 647 140 596H95Q98 664 131 713.5Q164 763 209 763Q228 763 246 750.5Q264 738 294 699Q316 671 326.5 662.5Q337 654 347 654Q370 654 387 683.5Q404 713 411 764H456Q452 696 419 647Q386 598 342 598Z" glyph-name="utilde" horiz-adv-x="558" unicode="&#361;" /><glyph d="M479 510 284 0H226L31 510H95L254 72H258L418 510Z" glyph-name="v" horiz-adv-x="510" unicode="v" /><glyph d="M504 85 619 510H676L529 0H474L354 411H351L233 0H178L31 510H91L210 85H213L330 510H378L500 85Z" glyph-name="w" horiz-adv-x="707" unicode="w" /><glyph d="M504 85 619 510H676L529 0H474L354 411H351L233 0H178L31 510H91L210 85H213L330 510H378L500 85ZM496 773 378 583H344L404 773Z" glyph-name="wacute" horiz-adv-x="707" unicode="&#7811;" /><glyph d="M504 85 619 510H676L529 0H474L354 411H351L233 0H178L31 510H91L210 85H213L330 510H378L500 85ZM209 583 315 773H388L493 583H452L351 722L251 583Z" glyph-name="wcircumflex" horiz-adv-x="707" unicode="&#373;" /><glyph d="M504 85 619 510H676L529 0H474L354 411H351L233 0H178L31 510H91L210 85H213L330 510H378L500 85ZM263 619Q242 619 227.5 633.5Q213 648 213 670Q213 692 227.5 707Q242 722 263 722Q284 722 298.5 707Q313 692 313 670Q313 648 298.5 633.5Q284 619 263 619ZM442 619Q420 619 405.5 633.5Q391 648 391 670Q391 692 405.5 707Q420 722 442 722Q463 722 477.5 707Q492 692 492 670Q492 648 477.5 633.5Q463 619 442 619Z" glyph-name="wdieresis" horiz-adv-x="707" unicode="&#7813;" /><glyph d="M504 85 619 510H676L529 0H474L354 411H351L233 0H178L31 510H91L210 85H213L330 510H378L500 85ZM311 773 371 583H337L219 773Z" glyph-name="wgrave" horiz-adv-x="707" unicode="&#7809;" /><glyph d="M487 0H417L259 222L97 0H31L226 263L45 510H115L260 306L407 510H474L292 265Z" glyph-name="x" horiz-adv-x="518" unicode="x" /><glyph d="M72 -220Q57 -220 43 -217.5Q29 -215 19 -210V-161Q31 -165 44 -166.5Q57 -168 72 -168Q123 -168 160.5 -126.5Q198 -85 227 5L31 510H97L256 81H260L416 510H479L281 -10Q235 -129 188.5 -174.5Q142 -220 72 -220Z" glyph-name="y" horiz-adv-x="510" unicode="y" /><glyph d="M72 -220Q57 -220 43 -217.5Q29 -215 19 -210V-161Q31 -165 44 -166.5Q57 -168 72 -168Q123 -168 160.5 -126.5Q198 -85 227 5L31 510H97L256 81H260L416 510H479L281 -10Q235 -129 188.5 -174.5Q142 -220 72 -220ZM378 773 260 583H226L286 773Z" glyph-name="yacute" horiz-adv-x="510" unicode="&#253;" /><glyph d="M72 -220Q57 -220 43 -217.5Q29 -215 19 -210V-161Q31 -165 44 -166.5Q57 -168 72 -168Q123 -168 160.5 -126.5Q198 -85 227 5L31 510H97L256 81H260L416 510H479L281 -10Q235 -129 188.5 -174.5Q142 -220 72 -220ZM115 583 221 773H294L399 583H358L257 722L157 583Z" glyph-name="ycircumflex" horiz-adv-x="510" unicode="&#375;" /><glyph d="M72 -220Q57 -220 43 -217.5Q29 -215 19 -210V-161Q31 -165 44 -166.5Q57 -168 72 -168Q123 -168 160.5 -126.5Q198 -85 227 5L31 510H97L256 81H260L416 510H479L281 -10Q235 -129 188.5 -174.5Q142 -220 72 -220ZM169 619Q148 619 133.5 633.5Q119 648 119 670Q119 692 133.5 707Q148 722 169 722Q190 722 204.5 707Q219 692 219 670Q219 648 204.5 633.5Q190 619 169 619ZM348 619Q326 619 311.5 633.5Q297 648 297 670Q297 692 311.5 707Q326 722 348 722Q369 722 383.5 707Q398 692 398 670Q398 648 383.5 633.5Q369 619 348 619Z" glyph-name="ydieresis" horiz-adv-x="510" unicode="&#255;" /><glyph d="M85 658 292 427 501 658H578L361 427H484V376H105V427H222L5 658ZM263 0V230H105V281H484V230H325V0Z" glyph-name="yen" horiz-adv-x="589" unicode="&#165;" /><glyph d="M72 -220Q57 -220 43 -217.5Q29 -215 19 -210V-161Q31 -165 44 -166.5Q57 -168 72 -168Q123 -168 160.5 -126.5Q198 -85 227 5L31 510H97L256 81H260L416 510H479L281 -10Q235 -129 188.5 -174.5Q142 -220 72 -220ZM235 773 295 583H261L143 773Z" glyph-name="ygrave" horiz-adv-x="510" unicode="&#7923;" /><glyph d="M128 53H428V0H52V35L338 457H58V510H413V472Z" glyph-name="z" horiz-adv-x="476" unicode="z" /><glyph d="M128 53H428V0H52V35L338 457H58V510H413V472ZM378 773 260 583H226L286 773Z" glyph-name="zacute" horiz-adv-x="476" unicode="&#378;" /><glyph d="M128 53H428V0H52V35L338 457H58V510H413V472ZM150 773 250 634 351 773H392L287 583H214L108 773Z" glyph-name="zcaron" horiz-adv-x="476" unicode="&#382;" /><glyph d="M128 53H428V0H52V35L338 457H58V510H413V472ZM251 619Q228 619 213.5 634Q199 649 199 672Q199 695 214 710.5Q229 726 251 726Q273 726 288 710.5Q303 695 303 672Q303 649 288.5 634Q274 619 251 619Z" glyph-name="zdotaccent" horiz-adv-x="476" unicode="&#380;" /><glyph d="M294 47Q376 47 421.5 121.5Q467 196 467 329Q467 462 421.5 536.5Q376 611 294 611Q212 611 166.5 536.5Q121 462 121 329Q121 196 166.5 121.5Q212 47 294 47ZM294 669Q400 669 465.5 575Q531 481 531 329Q531 177 465.5 83Q400 -11 294 -11Q188 -11 122.5 83Q57 177 57 329Q57 481 122.5 575Q188 669 294 669Z" glyph-name="zero" horiz-adv-x="589" unicode="0" /></font>
</defs>
</svg>
